<?xml version="1.0" standalone="no"?>
<!DOCTYPE svg PUBLIC "-//W3C//DTD SVG 1.1//EN" "http://www.w3.org/Graphics/SVG/1.1/DTD/svg11.dtd">
<svg xmlns="http://www.w3.org/2000/svg">
<defs >
<font id="Rubik" horiz-adv-x="544" ><font-face
    font-family="Rubik Light Medium"
    units-per-em="1000"
    panose-1="0 0 0 0 0 0 0 0 0 0"
    ascent="935"
    descent="-250"
    alphabetic="0" />
<glyph unicode=" " horiz-adv-x="233" />
<glyph unicode="!" horiz-adv-x="268" d="M72 194Q62 194 57 200T54 218L151 676Q153 686 161 693T180 700H260Q271 700 276 693T280 676L182 218Q180 207 172 201T153 194H72ZM25 0Q15 0 9 7T5 24L25 117Q27 128 35 135T55 142H148Q158 142 163 135T167 117L147
24Q145 14 137 7T118 0H25Z" />
<glyph unicode="&quot;" horiz-adv-x="412" d="M126 467Q113 467 110 474T107 492L128 684Q129 696 136 703T155 710H244Q255 710 260 703T261 684L200 492Q198 482 191 475T170 467H126ZM308 467Q296 467 293 474T290 492L310 684Q312 696 319 703T338 710H426Q437
710 442 703T443 684L383 492Q380 482 373 475T353 467H308Z" />
<glyph unicode="#" horiz-adv-x="691" d="M120 39Q111 39 105 45T103 60L142 169H57Q47 169 42 175T39 192L51 248Q53 259 61 265T79 271H179L234 423H137Q127 423 122 429T119 446L131 502Q133 513 141 519T159 525H271L311 634Q314 642 321 648T338 655H396Q405
655 410 649T412 634L373 525H498L538 634Q541 642 548 648T565 655H623Q632 655 637 649T639 634L600 525H684Q694 525 699 519T702 502L690 446Q688 436 680 430T662 423H563L509 271H604Q614 271 619 265T622 248L610 192Q608 182 600 176T582 169H471L432 60Q428
51 422 45T405 39H347Q338 39 333 45T330 60L369 169H244L205 60Q201 51 195 45T178 39H120ZM282 271H406L461 423H336L282 271Z" />
<glyph unicode="$" horiz-adv-x="644" d="M207 -100Q197 -100 192 -93T189 -76L203 -6Q133 3 88 31T24 99T11 183Q13 192 20 198T37 204H126Q138 204 143 199T153 185Q155 166 168 148T207 117T276 105Q348 105 390 129T441 194Q448 223 433 240T381 272T282 303Q212
321 168 349T107 419T102 520Q118 598 180 648T346 707L362 776Q364 786 372 793T391 800H452Q462 800 467 793T470 776L454 704Q517 692 559 663T619 595T630 522Q629 514 622 508T605 501H512Q503 501 496 505T486 520Q488 551 459 573T382 595Q328 595 290 575T241
513Q236 485 248 467T293 434T384 404Q466 385 513 358T578 289T583 189Q563 98 494 49T311 -8L297 -76Q295 -86 287 -93T268 -100H207Z" />
<glyph unicode="%" horiz-adv-x="811" d="M58 0Q43 0 40 11T46 31L678 681Q687 690 694 695T716 700H774Q789 700 792 690T786 669L155 19Q146 10 138 5T116 0H58ZM562 -6Q521 -6 490 11T444 58T434 129Q438 155 442 174T454 222Q471 282 511 318T623 354Q667
354 698 337T743 290T751 218Q747 190 743 171T732 126Q715 66 674 30T562 -6ZM567 72Q599 72 617 91T643 132Q650 157 653 174T660 215Q663 231 661 245T649 268T618 277Q584 277 567 258T542 215Q536 192 533 175T525 132Q524 118 526 104T538 81T567 72ZM209
345Q168 345 137 362T91 409T82 480Q85 506 90 525T102 572Q118 633 158 669T271 705Q315 705 345 688T390 640T399 569Q395 541 391 522T379 477Q363 417 321 381T209 345ZM214 422Q246 422 265 441T290 483Q297 508 300 525T307 566Q310 582 308 595T297 618T265
627Q232 627 214 608T190 566Q183 543 180 526T173 483Q171 468 173 454T185 431T214 422Z" />
<glyph unicode="&amp;" horiz-adv-x="718" d="M242 -10Q169 -10 120 14T50 84T42 191Q51 235 76 269T139 331T221 382Q187 427 177 464T175 539Q185 585 217 623T299 686T414 710Q475 710 513 687T568 626T574 541Q565 499 539 467T474 408T390 359L503 216Q519
236 541 268T584 349Q591 366 609 366H682Q691 366 695 361T697 346Q693 325 680 300T649 247T608 192T563 141L647 33Q653 26 651 18Q650 10 644 5T628 0H532Q522 0 517 3T507 10L464 64Q417 29 362 10T242 -10ZM265 93Q299 93 335 106T404 145L277 303Q239 284
208 258T168 195Q162 163 174 141T210 106T265 93ZM335 433Q366 448 391 463T435 496T458 538Q465 572 446 592T392 612Q361 612 332 593T296 538Q291 516 299 493T335 433Z" />
<glyph unicode="&apos;" horiz-adv-x="229" d="M126 467Q113 467 110 474T107 492L128 684Q129 696 136 703T155 710H244Q255 710 260 703T261 684L200 490Q197 480 191 474T171 467H126Z" />
<glyph unicode="(" horiz-adv-x="360" d="M216 -159Q170 -159 134 -142T73 -90T36 1T27 133T52 309Q78 433 109 521T182 666T281 749T414 776Q424 776 430 769T434 752L421 692Q419 682 411 675T393 668Q352 666 320 645T261 580T214 469T172 309Q153 216 146
149T145 38T176 -27T241 -51Q249 -51 254 -58T257 -75L245 -135Q243 -145 235 -152T216 -159Z" />
<glyph unicode=")" horiz-adv-x="360" d="M-50 -159Q-60 -159 -65 -152T-69 -135L-57 -75Q-54 -65 -46 -58T-29 -51Q13 -49 45 -28T103 37T151 148T192 308Q212 401 219 468T219 579T189 644T124 668Q115 668 110 675T107 692L120 752Q122 762 130 769T148 776Q194
776 230 759T292 707T329 616T338 484T313 308Q286 185 256 96T185 -49T87 -132T-50 -159Z" />
<glyph unicode="*" horiz-adv-x="445" d="M249 611V700Q248 712 256 720T277 730H348Q362 730 364 720T363 700L324 610L413 657Q422 662 433 662T446 647L455 576Q457 564 448 557T428 548L332 539L389 479Q396 471 395 461T383 443L314 399Q304 392 294 395T282
411L263 496L206 408Q201 400 190 395T170 398L121 443Q111 451 115 461T129 479L211 539L121 548Q111 549 105 557T106 578L145 649Q150 660 160 662T177 659L249 611Z" />
<glyph unicode="+" horiz-adv-x="609" d="M220 33Q210 33 205 40T201 57L242 252H51Q40 252 35 259T31 277L43 329Q45 340 53 346T72 353H264L304 543Q306 553 314 560T333 567H392Q402 567 407 560T410 543L370 353H562Q572 353 577 347T581 329L569 277Q568
266 560 259T541 252H349L307 57Q305 47 297 40T279 33H220Z" />
<glyph unicode="," horiz-adv-x="269" d="M34 116Q39 129 48 138T73 148H168Q178 148 181 141T180 124L77 -50Q71 -60 63 -67T40 -75H-16Q-24 -75 -28 -69T-28 -53L34 116Z" />
<glyph unicode="-" horiz-adv-x="480" d="M74 243Q64 243 59 250T56 267L70 333Q72 343 80 350T98 357H406Q416 357 421 350T425 333L411 267Q409 257 401 250T381 243H74Z" />
<glyph unicode="." horiz-adv-x="265" d="M24 0Q13 0 8 7T4 24L25 123Q27 134 35 141T54 148H154Q164 148 169 141T173 123L152 24Q150 14 142 7T123 0H24Z" />
<glyph unicode="/" horiz-adv-x="513" d="M-33 -84Q-44 -84 -49 -75T-46 -54L469 765Q473 772 482 779T504 786H570Q583 786 587 778T583 756L67 -63Q63 -69 55 -76T32 -84H-33Z" />
<glyph unicode="0" horiz-adv-x="656" d="M274 -10Q191 -10 136 21T59 112T50 258Q55 287 61 318T74 382T90 444Q111 529 152 588T255 679T403 710Q486 710 541 679T619 589T629 444Q624 415 618 383T604 319T589 258Q567 172 527 112T425 21T274 -10ZM283 105Q346
105 386 143T447 263Q455 292 461 321T474 380T485 438Q499 518 480 557T395 596Q331 596 292 557T232 438Q225 410 218 381T206 322T194 263Q180 182 199 144T283 105Z" />
<glyph unicode="1" horiz-adv-x="459" d="M211 0Q200 0 195 7T191 24L299 532L128 419Q118 413 109 414T95 425L61 485Q58 494 61 504T75 520L336 693Q343 698 347 699T360 700H450Q460 700 465 693T469 676L330 24Q328 14 320 7T302 0H211Z" />
<glyph unicode="2" horiz-adv-x="619" d="M20 0Q10 0 5 7T2 24L12 75Q14 84 21 96T47 122L239 279Q315 331 363 367T437 434T469 495Q478 540 459 568T387 596Q353 596 326 582T281 543T251 490Q245 477 235 472T216 467H128Q118 467 114 473T111 487Q121 530
146 570T211 642T301 693T412 712Q494 712 543 684T609 608T614 500Q604 453 578 414T509 338T411 263L239 119H523Q534 119 539 113T542 95L528 24Q526 14 518 7T498 0H20Z" />
<glyph unicode="3" horiz-adv-x="630" d="M260 -10Q190 -10 143 7T68 51T30 111T26 176Q28 185 35 190T51 196H141Q152 196 158 192T168 176Q170 149 186 133T229 111T285 104Q345 104 386 132T440 214Q451 267 423 290T336 314H233Q222 314 217 320T213 338L222
380Q225 390 230 397T242 410L458 585H172Q162 585 157 592T153 609L167 675Q169 686 177 693T197 700H626Q637 700 642 693T645 675L633 615Q631 606 626 599T614 587L403 409L415 408Q475 403 517 381T577 315T581 207Q567 139 521 91T407 16T260 -10Z" />
<glyph unicode="4" horiz-adv-x="658" d="M341 0Q331 0 326 7T322 24L349 152H24Q13 152 8 159T4 176L19 244Q21 254 24 260T34 272L419 683Q435 700 459 700H576Q586 700 592 693T596 676L509 270H599Q610 270 615 264T618 246L603 176Q601 166 593 159T574 152H484L456
24Q454 14 446 7T428 0H341ZM177 266H376L436 548L177 266Z" />
<glyph unicode="5" horiz-adv-x="619" d="M250 -11Q166 -11 111 17T32 91T14 190Q16 199 23 204T39 210H133Q144 210 151 206T158 190Q158 160 172 141T209 113T259 104Q296 104 329 118T387 162T420 233Q432 289 406 322T321 355Q292 355 272 348T237 332T210
316T186 309H95Q85 309 80 316T78 333L184 673Q188 686 197 693T219 700H594Q604 700 609 693T613 676L599 609Q596 599 588 592T570 585H281L230 422Q250 434 281 445T365 456Q414 456 454 440T523 393T562 321T562 225Q547 152 507 99T403 18T250 -11Z" />
<glyph unicode="6" horiz-adv-x="627" d="M268 -10Q182 -10 127 22T50 110T42 235Q48 266 63 295T95 350T130 396T160 429L397 680Q402 685 411 692T435 700H528Q537 700 541 694T544 678Q543 674 541 671T537 665L355 471Q365 474 377 475T399 476Q450 475 490
457T558 406T596 331T595 237Q582 171 537 115T423 24T268 -10ZM292 105Q327 105 361 120T420 164T454 236Q463 278 451 307T411 351T347 366Q311 366 277 351T218 307T184 236Q175 193 187 164T228 120T292 105Z" />
<glyph unicode="7" horiz-adv-x="543" d="M96 0Q87 0 83 6T80 22Q81 27 84 31L441 581H127Q117 581 112 588T108 605L123 675Q125 686 133 693T153 700H592Q603 700 608 693T611 675L598 613Q595 599 591 590T579 570L225 24Q220 17 211 9T187 0H96Z" />
<glyph unicode="8" horiz-adv-x="654" d="M273 -10Q187 -10 128 19T44 98T30 208Q42 266 80 308T169 372Q142 395 127 432T120 518Q132 576 170 619T267 686T402 710Q478 710 531 684T609 614T623 513Q614 464 588 431T517 372Q559 347 577 300T584 201Q571 139
532 91T428 17T273 -10ZM279 94Q319 94 353 108T412 147T444 205Q455 257 424 286T334 316Q296 316 261 303T200 265T168 205Q158 153 189 124T279 94ZM348 415Q382 416 412 428T464 461T493 510Q503 555 477 580T396 606Q360 606 330 594T278 561T250 510Q241
467 265 441T348 415Z" />
<glyph unicode="9" horiz-adv-x="617" d="M135 0Q126 0 122 6T119 22Q120 27 122 30T126 35L316 238Q295 233 273 234Q223 235 184 253T118 303T83 376T84 467Q94 512 120 555T186 634T282 689T405 710Q472 710 519 691T593 639T629 562T627 471Q618 428 596 391T547
324T495 264L266 20Q262 15 253 8T228 0H135ZM327 340Q363 340 396 355T452 399T484 467Q493 507 482 535T444 579T381 595Q346 595 314 580T258 536T225 467Q217 428 228 400T266 356T327 340Z" />
<glyph unicode=":" horiz-adv-x="275" d="M99 350Q89 350 84 357T80 374L100 469Q103 480 111 487T130 494H229Q239 494 244 487T248 469L228 374Q226 364 218 357T198 350H99ZM25 0Q15 0 9 7T5 24L26 119Q28 130 36 137T55 144H154Q165 144 170 137T173 119L153
24Q151 14 143 7T124 0H25Z" />
<glyph unicode=";" horiz-adv-x="286" d="M4 -75Q-4 -75 -8 -69T-8 -54L54 116Q59 129 68 138T93 148H185Q193 148 196 143T199 129Q198 125 193 116L94 -50Q87 -60 79 -67T55 -75H4ZM126 350Q115 350 110 357T106 374L126 469Q128 480 136 487T156 494H255Q265
494 270 487T274 469L254 374Q253 364 244 357T225 350H126Z" />
<glyph unicode="&lt;" horiz-adv-x="504" d="M378 15Q374 15 369 18T360 24L71 254Q59 265 54 274T52 299L57 323Q60 338 69 347T95 367L481 598Q486 601 493 603T504 606Q513 606 518 601T521 586L504 510Q501 496 493 489T471 474L194 311L402 147Q411 141 417
134T419 111L403 36Q402 26 395 21T378 15Z" />
<glyph unicode="=" horiz-adv-x="570" d="M55 123Q45 123 39 130T35 147L47 203Q49 213 57 220T77 227H464Q474 227 479 220T483 203L471 147Q469 137 461 130T442 123H55ZM108 373Q98 373 93 380T89 397L100 453Q102 463 110 470T130 477H517Q527 477 532 470T536
453L524 397Q522 387 514 380T495 373H108Z" />
<glyph unicode="&gt;" horiz-adv-x="504" d="M39 16Q30 16 26 21T23 36L39 112Q42 126 51 133T72 148L349 311L142 474Q132 481 127 489T123 510L140 586Q142 596 149 601T164 607Q169 607 174 604T183 598L472 368Q484 357 489 348T491 323L486 299Q483 285 474
275T448 255L61 24Q57 21 51 19T39 16Z" />
<glyph unicode="?" horiz-adv-x="564" d="M230 188Q221 188 217 193T213 208Q215 216 217 224T220 240Q232 279 256 309T309 365T366 414T416 459T446 506Q455 535 445 555T413 585T363 596Q317 596 281 573T224 499Q218 487 210 482T191 476H106Q96 476 91 482T88
500Q98 540 123 577T188 645T280 692T394 710Q462 710 504 693T569 647T596 587T593 523Q583 485 562 455T513 400T458 350T407 300T371 247Q368 238 365 230T359 213Q353 201 346 195T327 188H230ZM186 0Q176 0 171 7T168 24L186 111Q188 122 196 129T215 136H312Q323
136 328 129T332 111L313 24Q311 14 303 7T283 0H186Z" />
<glyph unicode="@" horiz-adv-x="838" d="M344 -124Q258 -124 198 -102T101 -40T51 58T46 186Q48 200 52 223T61 273T72 321T82 357Q103 423 140 480T231 580T354 646T506 670Q603 670 667 648T766 584T812 485T812 357Q808 334 803 309T793 263T784 229Q771 180
745 147T683 96T608 79Q575 79 554 89T520 111T503 133Q493 120 476 105T431 80T362 69Q287 69 255 123T243 273Q264 369 318 423T447 478Q487 478 507 464T538 431L541 446Q543 456 551 463T570 470H610Q620 470 625 463T628 446L584 238Q577 200 588 182T626
163Q650 163 665 175T688 206T700 238Q704 256 711 287T724 352Q735 430 717 482T644 560T487 587Q404 587 341 558T235 477T168 352Q163 335 156 304T142 242T134 191Q123 81 178 20T363 -41Q430 -41 471 -31T538 -8T582 18Q590 23 597 27T614 31H669Q679 31 684
25T687 8Q686 4 684 1T679 -7Q645 -37 598 -64T489 -107T344 -124ZM392 153Q438 153 465 184T504 273Q512 312 509 339T491 380T443 394Q398 394 371 363T330 273Q323 238 326 211T346 168T392 153Z" />
<glyph unicode="A" horiz-adv-x="697" d="M-26 0Q-39 0 -43 10T-42 30L336 675Q342 685 351 692T376 700H492Q507 700 514 693T522 675L626 30Q628 16 622 8T604 0H519Q506 0 500 6T491 23L469 141H172L99 19Q94 12 86 6T66 0H-26ZM231 256H459L411 565L231 256Z" />
<glyph unicode="B" horiz-adv-x="688" d="M40 0Q29 0 24 7T20 24L159 675Q161 686 169 693T188 700H470Q544 700 592 676T661 608T669 508Q660 468 641 440T598 394T554 367Q589 347 610 306T620 207Q607 147 574 100T485 27T347 0H40ZM176 106H343Q395 106 431
135T476 207Q485 251 466 280T387 309H220L176 106ZM242 413H396Q447 413 481 438T525 505Q534 547 515 571T444 595H281L242 413Z" />
<glyph unicode="C" horiz-adv-x="683" d="M296 -10Q228 -10 177 8T93 61T48 147T47 261Q54 302 64 349T85 439Q107 523 150 584T262 677T424 710Q491 710 543 693T629 644T678 570T682 478Q681 469 675 463T660 457H564Q552 457 546 462T539 481Q542 545 508 570T415
595Q348 595 298 558T227 434Q206 352 191 266Q176 180 206 143T304 105Q362 105 407 129T482 219Q489 233 496 238T514 243H611Q620 243 625 237T628 222Q615 174 589 132T521 58T424 8T296 -10Z" />
<glyph unicode="D" horiz-adv-x="702" d="M40 0Q29 0 24 7T20 24L159 675Q161 686 169 693T188 700H417Q483 700 536 683T624 631T673 545T675 428Q666 384 659 350T641 273Q619 180 579 120T472 30T302 0H40ZM179 115H307Q363 115 401 131T464 182T501 276Q509
306 514 328T523 373T533 425Q549 507 519 546T402 585H279L179 115Z" />
<glyph unicode="E" horiz-adv-x="621" d="M40 0Q29 0 24 7T20 24L159 675Q161 686 169 693T188 700H628Q639 700 644 693T647 675L633 609Q631 599 623 592T604 585H275L237 408H544Q555 408 560 402T563 384L550 322Q548 311 540 305T521 298H214L174 115H512Q523
115 528 108T531 90L517 24Q515 14 507 7T488 0H40Z" />
<glyph unicode="F" horiz-adv-x="603" d="M40 0Q29 0 24 7T20 24L159 675Q161 686 169 693T188 700H622Q633 700 638 693T641 675L626 605Q624 594 616 588T597 581H276L235 391H536Q547 391 552 384T555 366L541 296Q539 286 531 279T511 272H210L157 24Q155
14 147 7T128 0H40Z" />
<glyph unicode="G" horiz-adv-x="700" d="M299 -10Q207 -10 149 22T69 114T61 259Q69 302 79 351T101 445Q121 528 169 587T290 678T452 710Q525 710 576 691T657 641T698 575T704 510Q703 501 696 495T678 489H575Q566 489 562 493T554 505Q552 526 540 546T501
581T428 595Q360 595 312 559T243 440Q232 397 223 353T205 264Q191 179 224 142T326 105Q371 105 410 121T476 171T515 258L522 289H399Q389 289 384 296T381 314L392 367Q394 378 402 385T421 392H660Q671 392 676 385T679 367L657 262Q640 178 590 117T466 23T299
-10Z" />
<glyph unicode="H" horiz-adv-x="729" d="M40 0Q29 0 24 6T20 24L159 675Q161 686 169 693T188 700H278Q289 700 294 693T298 675L243 417H538L593 675Q595 686 603 693T622 700H712Q723 700 728 693T732 675L593 24Q591 14 583 7T564 0H474Q463 0 458 7T454 24L511
292H216L159 24Q157 14 149 7T130 0H40Z" />
<glyph unicode="I" horiz-adv-x="299" d="M39 0Q29 0 24 7T20 24L159 676Q161 686 169 693T188 700H282Q292 700 298 693T302 676L162 24Q160 14 152 7T134 0H39Z" />
<glyph unicode="J" horiz-adv-x="648" d="M251 -10Q203 -10 156 3T73 45T18 114T8 211Q10 220 16 226T33 233H129Q142 233 147 226T154 207Q150 153 178 129T259 105Q329 105 369 146T425 260L494 582H154Q144 582 139 589T135 606L151 676Q153 686 161 693T179
700H637Q648 700 653 693T656 675L567 256Q550 173 512 113T409 22T251 -10Z" />
<glyph unicode="K" horiz-adv-x="623" d="M40 0Q29 0 24 7T20 24L159 675Q161 686 168 693T187 700H276Q287 700 292 693T296 675L247 447L507 682Q512 687 522 693T549 700H651Q666 700 669 688T664 666L331 356L553 34Q562 21 554 11T534 0H437Q421 0 414 6T402
18L213 287L157 24Q155 14 148 7T129 0H40Z" />
<glyph unicode="L" horiz-adv-x="574" d="M40 0Q29 0 24 7T20 24L159 676Q161 686 169 693T188 700H280Q291 700 296 693T300 676L181 119H498Q509 119 514 112T518 94L503 24Q501 14 493 7T474 0H40Z" />
<glyph unicode="M" horiz-adv-x="812" d="M40 0Q30 0 24 7T20 24L159 675Q161 686 169 693T188 700H268Q282 700 287 693T295 681L412 321L683 681Q686 685 694 692T716 700H795Q806 700 811 693T815 675L676 24Q674 14 666 7T647 0H562Q552 0 546 7T542 24L633
448L441 190Q434 181 425 175T403 168H362Q349 168 343 174T333 190L247 463L154 24Q152 14 144 7T125 0H40Z" />
<glyph unicode="N" horiz-adv-x="708" d="M40 0Q29 0 24 7T20 24L159 675Q161 686 169 693T187 700H263Q277 700 282 694T289 684L483 232L578 675Q580 686 588 693T607 700H691Q702 700 707 693T710 675L572 25Q570 14 562 7T543 0H467Q453 0 448 6T441 16L246
458L154 24Q152 14 144 7T125 0H40Z" />
<glyph unicode="O" horiz-adv-x="695" d="M294 -10Q233 -10 182 6T97 57T50 142T48 264Q55 307 64 349T84 435Q117 571 202 640T423 710Q485 710 535 693T620 641T667 555T669 435Q662 391 653 349T633 264Q599 125 514 58T294 -10ZM303 105Q369 105 419 143T491
269Q502 313 510 350T525 431Q541 518 512 556T414 595Q347 595 298 557T227 431Q216 388 208 351T192 269Q177 182 205 144T303 105Z" />
<glyph unicode="P" horiz-adv-x="660" d="M40 0Q29 0 24 7T20 24L159 675Q161 686 169 693T188 700H444Q503 700 549 686T626 644T667 575T667 478Q643 367 569 313T373 258H213L163 24Q161 14 153 7T134 0H40ZM235 369H376Q431 369 471 396T524 478Q531 512 527
536T501 575T430 589H282L235 369Z" />
<glyph unicode="Q" horiz-adv-x="695" d="M464 -65Q450 -65 444 -57T433 -42L407 8Q356 -10 296 -10Q207 -10 149 19T68 110T62 264Q70 307 79 349T98 435Q120 526 170 587T291 679T449 710Q535 710 593 679T675 587T683 435Q676 391 667 349T646 264Q614 133
532 65L581 -34Q583 -38 582 -44Q581 -53 573 -59T557 -65H464ZM321 105Q385 105 434 143T505 269Q516 313 524 350T539 431Q550 489 538 525T497 578T424 595Q361 595 312 557T240 431Q230 388 222 351T206 269Q196 211 207 175T248 122T321 105Z" />
<glyph unicode="R" horiz-adv-x="673" d="M53 0Q43 0 38 7T35 24L173 675Q175 686 183 693T202 700H461Q582 700 640 644T675 481Q659 407 613 358T500 287L592 32Q593 29 593 27T592 21Q591 12 583 6T567 0H476Q459 0 453 9T442 27L364 264H225L174 24Q172 14
164 7T144 0H53ZM249 377H389Q450 377 486 404T532 482Q543 532 520 560T434 589H293L249 377Z" />
<glyph unicode="S" horiz-adv-x="641" d="M267 -10Q174 -10 115 17T30 88T11 183Q12 192 18 198T34 204H126Q138 204 143 199T152 185Q155 166 168 148T207 117T276 105Q348 105 390 129T441 194Q447 223 432 240T380 272T282 303Q212 321 167 349T106 419T102
520Q120 607 194 658T390 710Q453 710 500 693T578 647T622 586T630 522Q629 514 623 508T607 501H512Q503 501 496 505T486 520Q487 551 459 573T382 595Q328 595 290 575T241 513Q236 485 248 467T293 434T384 404Q466 385 513 358T578 289T582 189Q562 91 481
41T267 -10Z" />
<glyph unicode="T" horiz-adv-x="601" d="M191 0Q181 0 176 7T172 24L290 577H105Q94 577 89 584T85 601L101 675Q103 686 111 693T130 700H640Q651 700 656 693T660 675L644 601Q642 591 634 584T615 577H430L312 24Q310 14 302 7T283 0H191Z" />
<glyph unicode="U" horiz-adv-x="713" d="M303 -10Q239 -10 188 6T105 57T62 143T66 268L152 675Q154 686 162 693T181 700H272Q283 700 288 693T291 675L204 268Q187 186 212 147T312 107Q384 107 431 146T495 268L582 675Q584 686 593 693T612 700H702Q713 700
718 693T721 675L635 268Q604 124 524 57T303 -10Z" />
<glyph unicode="V" horiz-adv-x="674" d="M218 0Q202 0 195 8T186 28L108 674Q107 687 113 693T131 700H216Q230 700 236 693T243 678L302 163L580 678Q583 685 591 692T614 700H711Q723 700 726 690T725 669L375 28Q368 16 358 8T331 0H218Z" />
<glyph unicode="W" horiz-adv-x="808" d="M129 0Q114 0 107 8T100 30L113 678Q114 687 120 693T137 700H222Q235 700 241 694T246 677L235 234L386 520Q390 528 399 536T423 545H477Q493 545 498 537T504 520L535 228L714 680Q722 700 746 700H837Q849 700 852
693T852 674L602 30Q597 17 587 9T561 0H490Q475 0 468 8T460 25L413 358L238 25Q233 16 223 8T198 0H129Z" />
<glyph unicode="X" horiz-adv-x="662" d="M-22 0Q-34 0 -39 11T-36 33L266 360L112 668Q106 679 112 689T132 700H222Q240 700 246 693T254 681L364 461L561 681Q566 686 574 693T601 700H699Q712 700 716 689T713 667L425 341L582 31Q587 20 581 10T560 0H471Q455
0 449 7T440 18L327 238L123 18Q120 14 112 7T86 0H-22Z" />
<glyph unicode="Y" horiz-adv-x="662" d="M223 0Q212 0 207 7T203 24L250 250L103 668Q99 679 106 689T127 700H210Q222 700 228 694T237 681L342 391L571 681Q576 688 584 694T605 700H704Q720 700 721 689T715 668L390 250L341 24Q339 14 331 7T312 0H223Z" />
<glyph unicode="Z" horiz-adv-x="622" d="M0 0Q-11 0 -16 7T-20 25L-4 95Q-1 110 6 118T18 131L453 582H132Q122 582 117 589T113 606L128 675Q130 686 138 693T157 700H636Q647 700 652 693T655 675L640 606Q638 594 632 586T620 571L190 119H523Q534 119 539
112T543 94L528 24Q526 14 518 7T499 0H0Z" />
<glyph unicode="[" horiz-adv-x="354" d="M-5 -159Q-16 -159 -21 -152T-25 -135L164 752Q166 762 174 769T193 776H406Q416 776 422 769T426 752L412 691Q410 681 402 674T383 667H269L117 -43H232Q243 -43 248 -50T251 -67L236 -135Q235 -145 227 -152T208 -159H-5Z" />
<glyph unicode="\" horiz-adv-x="502" d="M323 -84Q308 -84 301 -77T292 -59L124 760Q122 771 128 778T145 786H204Q219 786 225 779T234 761L401 -58Q403 -69 398 -76T380 -84H323Z" />
<glyph unicode="]" horiz-adv-x="353" d="M364 776Q374 776 379 769T383 752L194 -135Q193 -145 185 -152T166 -159H-47Q-58 -159 -63 -152T-67 -135L-52 -67Q-50 -57 -42 -50T-23 -43H92L243 667H128Q118 667 113 674T109 691L122 752Q124 762 132 769T151 776H364Z" />
<glyph unicode="^" horiz-adv-x="448" d="M146 583Q131 583 134 596Q136 604 147 613L266 713Q278 724 286 726T303 729H358Q367 729 374 727T388 713L464 613Q471 604 470 596Q467 583 452 583H415Q407 583 399 584T386 590L312 643L216 590Q209 586 200 585T183
583H146Z" />
<glyph unicode="_" horiz-adv-x="739" d="M5 -56Q-5 -56 -10 -50T-14 -32L0 34Q2 44 10 51T29 58H616Q627 58 632 51T635 34L621 -32Q619 -43 611 -49T593 -56H5Z" />
<glyph unicode="`" horiz-adv-x="254" d="M169 595Q156 595 150 598T136 608L35 708Q29 714 31 722Q35 741 53 741H158Q171 741 177 738T191 723L251 625Q255 618 253 610Q250 595 234 595H169Z" />
<glyph unicode="a" horiz-adv-x="606" d="M199 -10Q147 -10 111 7T55 57T28 132T30 228Q34 246 37 260T44 293Q57 343 78 386T131 461T205 512T303 530Q365 530 397 511T448 463L455 496Q457 506 465 513T483 520H562Q572 520 578 513T582 496L481 24Q479 14 471
7T453 0H374Q363 0 358 7T354 24L362 61Q332 30 296 10T199 -10ZM244 97Q286 97 316 116T364 164T391 225Q396 243 400 263T407 302Q413 332 408 359T383 405T321 423Q282 423 255 405T209 356T180 290Q176 275 173 260T168 230Q163 194 165 164T186 116T244 97Z"
/>
<glyph unicode="b" horiz-adv-x="613" d="M295 -10Q237 -10 200 10T145 61L137 24Q135 14 127 7T108 0H28Q18 0 13 7T9 24L150 686Q152 696 160 703T179 710H264Q275 710 280 703T283 686L236 464Q267 493 303 511T394 530Q447 530 483 512T541 463T569 389T567
296Q564 278 561 261T552 225Q535 156 501 103T416 20T295 -10ZM273 97Q314 97 342 115T388 164T418 230Q423 245 426 260T430 290Q436 326 433 356T411 404T349 423Q309 423 279 405T229 360T201 302Q196 284 192 264T186 225Q180 194 185 165T210 116T273 97Z"
/>
<glyph unicode="c" horiz-adv-x="570" d="M232 -10Q165 -10 115 17T40 95T29 220Q32 235 37 259T46 300Q73 409 146 469T332 530Q395 530 437 512T504 466T538 408T545 354Q544 343 537 337T519 330H428Q418 330 413 335T406 350Q406 390 385 408T323 426Q274
426 236 395T180 295Q176 277 172 258T165 225Q154 156 175 125T245 94Q284 94 315 110T367 167Q373 178 379 182T396 187H486Q496 187 501 181T504 163Q497 141 479 112T428 54T348 8T232 -10Z" />
<glyph unicode="d" horiz-adv-x="612" d="M202 -10Q150 -10 113 7T55 57T28 132T30 228Q33 246 36 260T44 293Q57 343 78 386T132 461T206 512T301 530Q358 530 393 512T447 464L495 686Q497 696 505 703T523 710H608Q619 710 624 703T628 686L487 24Q485 14 477
7T458 0H379Q369 0 364 7T360 24L368 61Q337 30 300 10T202 -10ZM247 97Q288 97 319 116T369 164T396 225Q401 243 405 263T413 302Q419 332 413 359T385 405T324 423Q284 423 256 405T209 356T180 290Q176 275 173 260T167 230Q162 194 165 164T188 116T247 97Z"
/>
<glyph unicode="e" horiz-adv-x="575" d="M239 -10Q166 -10 118 19T51 103T45 236Q47 246 50 261T56 286Q76 362 118 416T220 500T354 530Q435 530 482 497T544 404T545 266L540 245Q538 235 530 228T510 221H178Q178 221 178 218T176 213Q171 178 177 149T203
101T258 83Q286 83 307 91T341 111T362 129Q374 141 380 143T397 146H484Q493 146 498 140T501 125Q496 109 476 86T422 41T342 5T239 -10ZM196 305H417L418 308Q428 347 421 376T392 422T335 439Q300 439 272 423T225 377T197 308L196 305Z" />
<glyph unicode="f" horiz-adv-x="411" d="M83 0Q72 0 67 7T63 24L146 414H65Q55 414 50 421T46 439L58 496Q60 506 68 513T88 520H169L177 561Q191 621 220 660T294 720T399 740H479Q490 740 495 733T498 716L486 659Q484 648 476 641T457 634H397Q357 634 335
614T306 556L298 520H422Q433 520 438 513T441 496L429 439Q427 428 419 421T400 414H276L192 24Q190 14 182 7T164 0H83Z" />
<glyph unicode="g" horiz-adv-x="614" d="M195 -220Q126 -220 83 -201T15 -155T-16 -102T-21 -60Q-19 -50 -12 -43T5 -35H95Q105 -35 110 -39T116 -56Q118 -69 124 -84T149 -109T203 -120Q237 -120 266 -109T317 -72T349 0L363 68Q333 39 296 21T205 3Q150 3 113
20T56 69T30 144T32 239Q34 254 36 266T43 293Q57 343 78 386T131 461T204 512T301 530Q358 530 395 509T451 455L459 495Q461 506 469 513T489 520H569Q580 520 585 513T589 495L487 13Q476 -41 455 -84T399 -157T314 -204T195 -220ZM249 109Q290 109 320 127T370
174T398 233Q401 246 405 266T411 298Q416 329 411 357T385 404T323 423Q284 423 255 405T208 356T179 290Q176 278 173 266T168 241Q163 206 166 176T188 127T249 109Z" />
<glyph unicode="h" horiz-adv-x="629" d="M28 0Q18 0 13 7T9 24L150 686Q152 696 160 703T178 710H268Q278 710 283 703T287 686L238 458Q270 490 309 510T405 530Q470 530 511 503T569 425T570 305L510 24Q508 14 500 7T481 0H391Q381 0 376 7T372 24L430 299Q443
357 425 390T352 423Q318 423 288 409T235 366T204 299L146 24Q144 14 136 7T118 0H28Z" />
<glyph unicode="i" horiz-adv-x="264" d="M28 0Q18 0 13 7T9 24L109 496Q111 506 119 513T138 520H221Q232 520 237 513T240 496L140 24Q138 14 130 7T111 0H28ZM152 606Q142 606 137 613T133 630L149 702Q151 712 159 719T178 726H269Q279 726 285 719T289 702L273
630Q271 620 263 613T244 606H152Z" />
<glyph unicode="j" horiz-adv-x="279" d="M-122 -190Q-133 -190 -138 -183T-141 -166L-129 -108Q-127 -98 -119 -91T-100 -84H-72Q-33 -84 -13 -60T14 1L119 496Q121 506 129 513T149 520H235Q246 520 251 513T254 496L149 -1Q136 -60 109 -102T36 -167T-77 -190H-122ZM163
606Q152 606 147 613T143 630L159 702Q161 712 169 719T188 726H283Q293 726 298 719T302 702L287 630Q285 620 277 613T258 606H163Z" />
<glyph unicode="k" horiz-adv-x="552" d="M28 0Q18 0 13 7T9 24L150 686Q152 696 160 703T178 710H260Q270 710 275 703T279 686L207 348L403 503Q414 511 422 515T444 520H546Q562 520 564 506T550 480L303 280L479 35Q488 24 482 12T460 0H369Q355 0 349 5T338
16L182 230L138 24Q136 14 128 7T110 0H28Z" />
<glyph unicode="l" horiz-adv-x="265" d="M28 0Q18 0 13 7T9 24L150 686Q152 696 160 703T178 710H261Q272 710 277 703T281 686L140 24Q138 14 130 7T111 0H28Z" />
<glyph unicode="m" horiz-adv-x="903" d="M28 0Q18 0 13 7T9 24L109 496Q111 506 119 513T138 520H216Q226 520 231 513T234 496L227 462Q246 481 266 496T314 521T377 530Q435 530 472 507T523 441Q555 481 597 505T695 530Q749 530 788 506T844 434T845 311L783
24Q781 14 773 7T755 0H673Q663 0 658 7T654 24L713 303Q723 348 717 374T693 412T648 423Q625 423 600 412T553 375T522 303L462 24Q460 14 452 7T434 0H352Q342 0 336 7T332 24L392 303Q401 348 395 374T370 412T326 423Q304 423 278 412T231 374T200 303L140
24Q138 14 130 7T112 0H28Z" />
<glyph unicode="n" horiz-adv-x="624" d="M28 0Q18 0 13 7T9 24L109 496Q111 506 119 513T138 520H220Q230 520 235 513T238 496L229 455Q261 487 304 508T403 530Q471 530 512 503T566 425T565 305L505 24Q503 14 495 7T476 0H388Q378 0 373 7T369 24L427 299Q440
360 425 391T351 423Q294 423 255 390T202 299L144 24Q142 14 134 7T116 0H28Z" />
<glyph unicode="o" horiz-adv-x="591" d="M237 -10Q161 -10 111 18T39 97T28 216Q31 234 36 260T47 304Q65 373 102 423T198 502T337 530Q413 530 463 502T536 424T547 304Q543 286 538 260T528 216Q510 148 474 97T379 18T237 -10ZM247 89Q301 89 338 122T393
221Q397 236 402 260T410 299Q421 364 401 397T327 431Q274 431 236 398T182 299Q178 284 173 260T165 221Q154 156 173 123T247 89Z" />
<glyph unicode="p" horiz-adv-x="612" d="M-12 -190Q-22 -190 -27 -183T-31 -166L110 496Q112 506 120 513T138 520H218Q228 520 233 513T237 496L228 456Q259 488 296 509T395 530Q447 530 483 513T541 463T568 388T566 292Q564 275 561 260T552 227Q540 178
518 135T465 59T391 8T295 -10Q239 -10 203 9T151 61L102 -166Q100 -176 92 -183T73 -190H-12ZM273 97Q313 97 341 115T387 164T417 230Q422 245 425 260T430 290Q435 326 431 356T409 404T350 423Q308 423 278 404T228 356T200 295Q195 277 191 257T184 218Q179
188 184 161T211 115T273 97Z" />
<glyph unicode="q" horiz-adv-x="613" d="M333 -190Q323 -190 318 -183T314 -166L362 61Q332 29 295 10T203 -10Q151 -10 114 8T56 57T29 131T30 224Q33 242 37 260T45 295Q63 365 96 417T181 500T302 530Q360 530 398 509T452 456L461 496Q463 506 471 513T490
520H569Q580 520 585 513T588 496L448 -166Q446 -176 438 -183T418 -190H333ZM248 97Q289 97 319 115T369 160T396 218Q401 237 405 257T412 295Q418 326 413 355T387 404T325 423Q285 423 257 405T210 356T180 290Q176 275 173 260T167 230Q162 194 165 164T187
116T248 97Z" />
<glyph unicode="r" horiz-adv-x="419" d="M28 0Q18 0 13 7T9 24L109 495Q111 506 119 513T138 520H219Q229 520 234 513T238 495L229 454Q253 486 290 503T380 520H429Q440 520 445 513T448 496L433 424Q431 414 423 407T404 400H326Q278 400 246 374T203 299L144
24Q142 14 134 7T115 0H28Z" />
<glyph unicode="s" horiz-adv-x="532" d="M212 -10Q152 -10 113 4T51 39T20 81T13 116Q15 127 23 133T41 140H120Q124 140 127 139T133 133Q144 122 156 110T186 90T235 81Q274 81 303 96T339 141Q343 162 334 175T297 198T214 221Q160 234 128 254T84 304T81
374Q89 413 120 448T202 507T323 530Q377 530 414 517T474 483T506 443T512 407Q511 396 503 390T485 383H412Q407 383 403 385T397 390Q387 400 377 411T350 431T303 439Q265 439 242 423T212 381Q209 364 215 352T249 328T331 305Q396 293 430 270T475 216T478
148Q469 103 435 67T344 11T212 -10Z" />
<glyph unicode="t" horiz-adv-x="423" d="M244 0Q176 0 138 21T89 83T91 187L140 414H61Q51 414 46 421T42 439L54 496Q56 506 64 513T84 520H162L198 686Q200 696 208 703T226 710H307Q318 710 323 703T327 686L291 520H416Q426 520 431 513T435 496L423 439Q421
428 413 421T394 414H269L223 197Q217 170 217 151T227 121T266 110H338Q349 110 354 103T357 86L344 24Q342 14 334 7T315 0H244Z" />
<glyph unicode="u" horiz-adv-x="621" d="M204 -10Q139 -10 98 17T44 95T44 215L104 496Q106 506 114 513T133 520H221Q231 520 236 513T239 496L181 221Q172 180 175 153T198 111T257 97Q311 97 351 130T403 221L462 496Q464 506 472 513T491 520H578Q589 520
594 513T597 496L497 24Q495 14 487 7T468 0H387Q377 0 372 7T368 24L376 65Q354 42 331 25T278 -1T204 -10Z" />
<glyph unicode="v" horiz-adv-x="573" d="M185 0Q170 0 164 7T156 25L67 493Q65 506 72 513T91 520H167Q178 520 184 514T192 497L249 150L457 501Q460 507 467 513T487 520H574Q586 520 590 511T587 489L302 25Q295 15 287 8T263 0H185Z" />
<glyph unicode="w" horiz-adv-x="821" d="M143 0Q129 0 123 7T116 25L71 493Q70 504 77 512T97 520H167Q179 520 184 515T191 501L220 170L392 498Q396 505 404 512T425 520H477Q491 520 496 513T502 498L538 170L706 501Q709 507 716 513T735 520H816Q830 520
832 511T830 491L589 25Q583 14 575 7T552 0H486Q472 0 466 7T457 25L416 341L246 25Q240 14 231 7T208 0H143Z" />
<glyph unicode="x" horiz-adv-x="563" d="M-17 0Q-31 0 -35 12T-30 35L194 270L80 487Q75 497 81 508T101 520H184Q196 520 201 514T209 503L291 352L439 503Q444 508 451 514T473 520H561Q574 521 579 508T573 484L357 257L473 33Q479 22 474 11T453 0H368Q356
0 351 5T342 16L258 172L107 16Q103 12 96 6T74 0H-17Z" />
<glyph unicode="y" horiz-adv-x="580" d="M56 -190Q44 -190 40 -180T44 -158L166 34L69 492Q67 503 73 511T94 520H169Q181 520 186 515T192 501L259 173L467 501Q472 509 479 514T499 520H585Q595 520 600 512T599 490L172 -171Q167 -179 160 -184T140 -190H56Z" />
<glyph unicode="z" horiz-adv-x="529" d="M0 0Q-10 0 -15 7T-19 24L-7 81Q-5 90 -2 96T8 106L330 416H97Q87 416 82 422T78 440L90 496Q92 506 100 513T119 520H498Q509 520 514 513T517 496L505 435Q502 422 490 412L172 104H430Q441 104 446 98T449 80L437 24Q435
14 427 7T409 0H0Z" />
<glyph unicode="{" horiz-adv-x="397" d="M262 -159Q203 -158 164 -140T102 -85T77 6T90 131Q100 178 93 206T60 251L51 256Q28 271 34 295L39 323Q43 337 50 345T74 362L85 367Q117 384 136 412T166 487Q181 558 206 612T269 702T353 757T460 776H465Q475 776
479 770T482 754L469 690Q468 680 461 674T444 668H440Q395 666 366 646T317 583T283 470Q271 409 242 368T175 309Q196 298 207 275T221 219T215 148Q200 79 200 36T221 -27T286 -50L291 -51Q300 -51 304 -57T307 -73L293 -137Q292 -146 284 -152T267 -159H262Z"
/>
<glyph unicode="|" horiz-adv-x="249" d="M-15 -208Q-26 -208 -31 -201T-34 -184L190 872Q192 882 200 889T220 896H284Q295 896 300 889T303 872L79 -184Q77 -194 69 -201T49 -208H-15Z" />
<glyph unicode="}" horiz-adv-x="397" d="M168 776Q227 776 267 758T328 703T353 612T341 486Q331 440 338 412T370 366L379 362Q402 347 397 323L391 294Q386 270 357 255L345 250Q314 234 295 206T265 130Q250 59 224 6T161 -84T77 -139T-29 -159H-35Q-45 -159
-49 -153T-53 -137L-39 -73Q-37 -63 -30 -57T-13 -51H-9Q36 -48 65 -28T113 35T147 147Q160 209 189 250T256 308Q235 321 224 343T210 398T215 469Q230 539 230 582T209 645T144 668H140Q131 668 127 674T123 690L136 754Q138 764 146 770T163 776H168Z" />
<glyph unicode="~" horiz-adv-x="557" d="M85 227Q75 227 72 233T71 252L83 310Q87 327 105 341T150 365T207 375Q241 375 265 369T310 356T353 343T407 337Q434 337 454 348T486 366Q491 369 495 370T504 372Q514 372 517 366T517 347L505 290Q502 273 484 258T439
234T381 224Q348 224 325 230T280 243T236 256T182 262Q154 262 134 251T102 233Q98 231 94 230T85 227Z" />
<glyph unicode="&#xa0;" horiz-adv-x="233" />
<glyph unicode="&#xa1;" horiz-adv-x="260" d="M354 324Q364 324 369 318T373 300L275 -158Q273 -168 265 -175T246 -182H166Q155 -182 150 -175T146 -158L244 300Q246 311 254 317T273 324H354ZM401 518Q411 518 417 512T421 494L401 401Q399 391 391 384T371
376H278Q268 376 263 383T259 401L279 494Q281 505 289 511T308 518H401Z" />
<glyph unicode="&#xa2;" horiz-adv-x="579" d="M170 -100Q159 -100 154 -93T150 -76L165 0Q92 17 55 74T33 220Q36 235 41 259T50 300Q73 394 131 453T278 525L291 586Q294 596 302 603T320 610H391Q401 610 406 603T410 586L396 523Q457 512 491 483T539 418T549
354Q548 343 541 337T523 330H432Q422 330 417 335T410 350Q410 390 389 408T327 426Q278 426 240 395T184 295Q180 277 176 258T169 225Q158 156 179 125T249 94Q288 94 319 110T371 167Q377 178 383 182T400 187H490Q500 187 505 181T508 163Q502 142 487 116T444
64T377 19T283 -6L269 -76Q267 -86 259 -93T240 -100H170Z" />
<glyph unicode="&#xa3;" horiz-adv-x="699" d="M428 -7Q393 -7 367 2T321 24T282 50T244 72T201 81Q166 81 147 64T114 16Q112 12 107 6T92 0H16Q8 0 4 6T1 19Q17 85 57 126T150 184Q154 209 155 234T159 289H83Q72 289 67 295T64 313L76 368Q78 378 86 385T105
392H161Q162 406 165 421T171 452Q188 530 229 588T334 678T483 711Q564 711 616 682T690 601T699 483Q697 474 690 468T673 461H579Q569 461 562 467T554 485Q554 539 532 567T459 596Q401 596 365 557T314 451Q311 435 309 421T304 392H476Q486 392 491 385T494
368L483 313Q481 302 473 296T453 289H289Q287 262 285 236T276 181Q304 175 323 164T358 139T393 116T436 107Q474 107 495 127T533 177Q535 182 541 187T554 192H622Q631 192 635 187T637 173Q624 115 592 75T516 14T428 -7Z" />
<glyph unicode="&#xa4;" horiz-adv-x="601" d="M67 65L38 102Q33 110 34 119T45 136L99 180Q75 233 89 300Q103 367 150 420L115 464Q110 471 111 480T122 498L168 535Q177 543 186 543T202 535L236 491Q265 508 297 517T364 526Q397 526 425 517T476 491L530
535Q538 543 548 543T563 535L593 498Q598 490 596 481T586 464L532 420Q543 394 546 364T542 300Q535 266 519 236T480 180L516 136Q521 129 520 120T509 102L463 65Q454 58 444 58T429 65L394 109Q334 74 267 74Q201 74 155 109L101 65Q93 58 83 58T67 65ZM289
174Q324 174 356 191T411 237T441 300Q449 335 438 363T402 409T342 426Q308 426 276 409T221 364T190 300Q182 266 193 237T229 191T289 174Z" />
<glyph unicode="&#xa5;" horiz-adv-x="653" d="M207 0Q196 0 191 7T187 24L238 264L101 668Q99 674 100 679Q100 689 107 694T125 700H209Q221 700 227 694T235 681L332 407L545 681Q549 688 558 694T579 700H675Q684 700 689 694T692 679Q691 676 690 673T686
668L378 264L327 24Q325 14 317 7T297 0H207ZM65 86Q55 86 50 93T46 110L58 167Q60 178 68 184T88 191H499Q509 191 514 185T517 167L505 110Q503 100 495 93T476 86H65ZM95 227Q84 227 79 233T76 251L88 307Q90 318 98 324T117 331H528Q538 331 543 325T547 307L535
251Q533 240 525 234T506 227H95Z" />
<glyph unicode="&#xa6;" horiz-adv-x="255" d="M133 475Q122 475 117 482T114 499L179 805Q181 815 189 822T209 829H273Q284 829 289 822T292 805L227 499Q225 489 217 482T197 475H133ZM33 0Q22 0 17 7T13 24L78 330Q80 340 88 347T108 354H172Q183 354 188
347T191 330L126 24Q124 14 116 7T97 0H33Z" />
<glyph unicode="&#xa7;" horiz-adv-x="587" d="M207 -140Q152 -140 114 -127T54 -91T22 -43T17 3Q18 13 25 19T42 25H121Q129 25 134 21T143 7Q146 -5 153 -17T177 -36T227 -44Q269 -44 293 -23T324 29Q329 51 323 65T292 92T217 117Q148 138 109 164T58 227T56
316Q65 358 93 391T158 449Q150 466 150 486T154 531Q164 577 196 618T280 684T403 710Q477 710 520 687T581 630T594 567Q593 558 585 552T568 546H490Q480 546 476 550T467 564Q464 576 457 587T433 606T384 614Q342 614 317 593T286 542Q282 519 288 505T318
479T393 453Q463 432 502 406T553 343T554 254Q545 212 518 179T452 121Q461 104 461 84T457 39Q447 -7 414 -48T329 -114T207 -140ZM369 186Q396 197 411 212T432 250Q438 272 432 289T402 320T332 350Q301 360 280 368T241 384Q214 374 199 358T178 320Q174 299
179 282T208 250T280 220Q326 204 369 186Z" />
<glyph unicode="&#xa8;" horiz-adv-x="354" d="M237 614Q227 614 223 620T219 636L235 709Q237 719 244 725T262 732H335Q345 732 350 726T353 709L337 636Q335 626 328 620T310 614H237ZM49 614Q39 614 35 620T31 636L47 709Q49 719 56 725T74 732H147Q157 732
162 726T165 709L149 636Q147 626 140 620T122 614H49Z" />
<glyph unicode="&#xa9;" horiz-adv-x="817" d="M350 -10Q277 -10 217 18T116 97T60 213T60 354Q76 429 116 493T214 606T342 682T489 710Q562 710 622 682T723 603T780 487T780 346Q764 271 724 207T625 94T497 18T350 -10ZM355 61Q414 61 471 83T576 146T657
238T703 350Q716 409 706 461T666 554T590 616T485 639Q425 639 369 617T264 554T183 462T136 350Q123 291 133 239T173 146T249 84T355 61ZM386 158Q336 158 302 179T253 235T244 315Q246 323 248 337T254 365T259 387Q271 432 296 467T360 523T452 544Q508 544
542 526T592 481T603 428Q602 418 595 412T577 406H528Q517 406 513 412T507 426Q506 446 493 456T447 467Q418 467 398 454T367 422T351 385Q349 377 346 364T341 338T337 317Q334 299 335 280T348 248T390 235Q422 235 443 245T475 276Q480 283 486 289T504 296H553Q563
296 568 290T571 274Q564 249 543 222T484 177T386 158Z" />
<glyph unicode="&#xaa;" horiz-adv-x="358" d="M172 429Q128 429 104 452T86 507Q92 545 128 568T220 600L280 609Q281 615 282 622T278 635T255 641Q236 641 226 637T208 628T191 623H145Q128 623 131 638Q134 649 147 665T187 693T258 705Q317 705 345 676T363
596L332 453Q331 445 325 440T310 434H264Q255 434 251 439T248 453L251 463Q238 448 218 439T172 429ZM192 492Q223 492 242 509T267 553L225 546Q198 541 185 532T170 511Q169 503 174 498T192 492Z" />
<glyph unicode="&#xab;" horiz-adv-x="615" d="M505 76Q501 76 496 78T487 85L328 279Q322 287 320 294T319 311L327 347Q329 356 334 363T350 379L591 573Q597 578 603 580T613 582Q622 582 626 576T629 561L615 494Q611 480 606 472T588 454L433 329L535 204Q543
194 545 186T545 164L530 97Q528 88 521 82T505 76ZM239 76Q235 76 231 78T221 85L63 279Q57 287 55 294T53 311L61 347Q63 356 68 363T84 379L325 573Q331 578 337 580T347 582Q356 582 360 576T363 561L349 494Q346 480 341 472T323 454L167 329L269 204Q277
194 279 186T279 164L265 97Q263 88 256 82T239 76Z" />
<glyph unicode="&#xac;" horiz-adv-x="576" d="M396 146Q385 146 380 153T377 170L398 270H83Q72 270 67 277T63 295L75 350Q77 360 85 367T105 374H502Q512 374 517 367T520 350L482 170Q481 160 473 153T454 146H396Z" />
<glyph unicode="&#xad;" horiz-adv-x="600" d="M74 243Q64 243 59 250T56 267L70 333Q72 343 80 350T98 357H406Q416 357 421 350T425 333L411 267Q409 257 401 250T381 243H74Z" />
<glyph unicode="&#xae;" horiz-adv-x="818" d="M351 -10Q278 -10 218 18T117 97T60 213T60 354Q76 429 116 493T213 606T341 682T489 710Q562 710 622 682T724 603T780 487T780 346Q764 271 725 207T627 94T498 18T351 -10ZM355 61Q414 61 471 83T576 146T659
238T705 350Q718 409 708 461T667 554T591 616T485 639Q427 639 370 617T265 554T182 462T135 350Q123 291 133 239T174 146T250 84T355 61ZM261 168Q251 168 247 174T244 190L312 512Q317 534 339 534H464Q499 534 532 523T584 485T594 414Q587 374 563 349T507
311L544 204Q545 202 545 199T545 190Q544 182 537 175T518 168H477Q467 168 462 173T452 187L419 294H355L333 190Q328 168 306 168H261ZM371 369H438Q470 369 485 382T503 414Q507 433 499 446T458 460H391L371 369Z" />
<glyph unicode="&#xaf;" horiz-adv-x="339" d="M49 611Q39 611 35 617T31 633L42 684Q44 694 51 700T69 706H320Q330 706 335 700T338 684L327 633Q325 623 318 617T300 611H49Z" />
<glyph unicode="&#xb0;" horiz-adv-x="398" d="M222 399Q176 399 143 419T97 475T92 555Q101 599 129 634T198 690T282 710Q329 710 361 690T408 635T412 555Q403 511 375 476T307 420T222 399ZM233 479Q265 479 293 500T328 555Q336 589 321 610T272 631Q239
631 212 610T176 555Q169 521 183 500T233 479Z" />
<glyph unicode="&#xb1;" horiz-adv-x="562" d="M232 190Q222 190 217 197T213 214L245 365H97Q87 365 82 372T78 389L89 442Q91 452 99 459T118 466H266L298 613Q300 623 308 630T327 637H386Q397 637 402 630T405 613L374 466H521Q531 466 536 459T540 442L528
389Q527 379 519 372T500 365H353L320 214Q318 204 310 197T291 190H232ZM30 0Q20 0 14 7T10 24L22 77Q24 87 32 94T51 101H433Q444 101 449 94T452 77L441 24Q439 14 431 7T412 0H30Z" />
<glyph unicode="&#xb2;" horiz-adv-x="349" d="M76 350Q66 350 62 356T59 372L64 400Q66 408 72 415T96 433Q164 477 206 503T269 549T295 591Q299 609 289 620T258 632Q239 632 228 626T211 612T201 599Q193 588 187 585T173 581H130Q110 581 116 600Q124 629
147 652T204 690T274 705Q336 705 364 673T384 594Q376 560 356 535T299 484T208 425H340Q350 425 354 419T357 403L351 372Q346 350 324 350H76Z" />
<glyph unicode="&#xb3;" horiz-adv-x="348" d="M194 345Q143 345 115 359T76 393T68 432Q70 442 77 446T89 451H122Q130 451 137 449T149 443Q156 438 160 433T174 423T207 419Q233 419 252 429T274 457Q279 479 265 486T226 494H183Q173 494 169 500T166 515L171
537Q173 544 176 549T186 559L270 623H147Q137 623 132 629T129 645L137 678Q142 700 163 700H377Q387 700 392 694T395 678L389 649Q387 639 383 632T367 616L288 559Q335 554 354 527T365 455Q358 422 335 398T275 359T194 345Z" />
<glyph unicode="&#xb4;" horiz-adv-x="299" d="M43 595Q27 595 31 611Q33 618 39 624L142 723Q154 734 161 737T183 741H283Q299 741 298 724Q297 715 290 710L144 608Q134 601 126 598T106 595H43Z" />
<glyph unicode="&#xb5;" horiz-adv-x="631" d="M-15 -200Q-25 -200 -30 -193T-33 -176L109 496Q111 506 119 513T138 520H228Q238 520 243 513T247 496L188 221Q180 182 189 155T221 112T272 97Q301 97 330 112T383 154T414 221L473 496Q475 506 483 513T502 520H589Q600
520 605 513T608 496L508 24Q506 14 498 7T479 0H398Q388 0 382 7T378 24L387 65Q355 30 314 12T216 -7Q178 -7 151 6T107 39T77 85L168 122L104 -176Q102 -186 94 -193T75 -200H-15Z" />
<glyph unicode="&#xb6;" horiz-adv-x="581" d="M75 515Q85 566 119 608T200 675T299 700H568Q579 700 584 693T588 676L428 -76Q426 -86 418 -93T398 -100H339Q329 -100 324 -93T320 -76L465 605H386L241 -76Q239 -86 231 -93T212 -100H153Q142 -100 137 -93T134
-76L220 330Q169 330 133 355T80 422T75 515Z" />
<glyph unicode="&#xb7;" horiz-adv-x="333" d="M56 308Q63 341 84 367T136 408T197 424Q230 424 252 409T285 367T288 308Q282 277 261 250T210 208T147 192Q116 192 93 207T59 250T56 308Z" />
<glyph unicode="&#xb8;" horiz-adv-x="252" d="M115 -220Q88 -220 66 -211T34 -190T36 -169L55 -154Q65 -147 71 -150T86 -160T117 -166Q133 -166 145 -157T161 -132Q164 -118 156 -109T130 -100Q117 -100 106 -103T87 -108T72 -102L57 -81Q52 -75 55 -67T66 -49L115
27H180L124 -53Q131 -50 141 -48T160 -46Q193 -46 210 -71T219 -135Q211 -173 186 -196T115 -220Z" />
<glyph unicode="&#xb9;" horiz-adv-x="295" d="M172 350Q162 350 158 356T155 372L202 595L138 553Q131 548 122 549T108 558L94 585Q90 593 93 601T105 616L224 693Q235 700 248 700H292Q302 700 307 694T310 678L245 372Q240 350 218 350H172Z" />
<glyph unicode="&#xba;" horiz-adv-x="354" d="M209 429Q151 429 119 457T95 543Q96 551 100 567T106 591Q121 648 159 676T256 705Q292 705 320 693T362 655T370 591Q369 584 365 568T359 543Q349 505 331 480T282 442T209 429ZM216 497Q238 497 251 508T272
545Q274 553 277 567T282 589Q285 612 279 624T249 637Q227 637 213 625T193 589Q191 582 188 568T183 545Q180 520 186 509T216 497Z" />
<glyph unicode="&#xbb;" horiz-adv-x="615" d="M310 76Q301 76 297 82T294 97L308 164Q311 178 317 186T334 204L489 329L388 454Q381 464 378 472T378 494L392 561Q394 570 401 576T418 582Q422 582 426 580T436 573L594 379Q601 371 603 364T603 347L595 311Q594
302 589 295T573 279L332 85Q326 80 320 78T310 76ZM45 76Q36 76 31 82T28 97L43 164Q46 178 52 186T69 204L224 329L122 454Q115 464 112 472T113 494L127 561Q129 570 136 576T152 582Q156 582 161 580T170 573L329 379Q335 371 337 364T338 347L330 311Q328
302 323 295T307 279L66 85Q60 80 55 78T45 76Z" />
<glyph unicode="&#xbc;" horiz-adv-x="840" d="M172 350Q162 350 158 356T155 372L202 595L138 553Q131 548 122 549T108 558L94 585Q90 593 93 601T105 616L224 693Q235 700 248 700H292Q302 700 307 694T310 678L245 372Q240 350 218 350H172ZM61 0Q47 0 44
11T49 31L681 681Q690 690 698 695T719 700H765Q780 700 783 690T777 669L146 19Q137 10 129 5T107 0H61ZM646 0Q636 0 632 6T629 22L638 63H490Q479 63 475 69T472 85L479 121Q480 123 483 131T498 151L670 332Q680 343 688 346T703 350H764Q774 350 779 344T782
328L742 142H777Q787 142 791 136T794 120L787 85Q782 63 760 63H725L717 22Q712 0 690 0H646ZM578 140H655L679 249L578 140Z" />
<glyph unicode="&#xbd;" horiz-adv-x="830" d="M172 350Q162 350 158 356T155 372L202 595L138 553Q131 548 122 549T108 558L94 585Q90 593 93 601T105 616L224 693Q235 700 248 700H292Q302 700 307 694T310 678L245 372Q240 350 218 350H172ZM61 0Q47 0 44
11T49 31L681 681Q690 690 698 695T719 700H765Q780 700 783 690T777 669L146 19Q137 10 129 5T107 0H61ZM483 0Q473 0 469 6T466 22L471 50Q473 58 479 65T503 83Q571 127 613 153T676 199T702 241Q706 259 696 270T665 282Q646 282 635 276T618 262T608 249Q600
238 594 235T580 231H537Q517 231 523 250Q531 279 554 302T611 340T681 355Q743 355 771 323T791 244Q783 210 763 185T706 134T615 75H747Q757 75 761 69T764 53L758 22Q753 0 731 0H483Z" />
<glyph unicode="&#xbe;" horiz-adv-x="893" d="M194 345Q143 345 115 359T76 393T68 432Q70 442 77 446T89 451H122Q130 451 137 449T149 443Q156 438 160 433T174 423T207 419Q233 419 252 429T274 457Q279 479 265 486T226 494H183Q173 494 169 500T166 515L171
537Q173 544 176 549T186 559L270 623H147Q137 623 132 629T129 645L137 678Q142 700 163 700H377Q387 700 392 694T395 678L389 649Q387 639 383 632T367 616L288 559Q335 554 354 527T365 455Q358 422 335 398T275 359T194 345ZM114 0Q100 0 97 11T102 31L734
681Q743 690 751 695T772 700H818Q833 700 836 690T830 669L199 19Q190 10 182 5T160 0H114ZM699 0Q689 0 685 6T682 22L691 63H543Q532 63 528 69T525 85L532 121Q533 123 536 131T551 151L723 332Q733 343 741 346T756 350H817Q827 350 832 344T835 328L795 142H830Q840
142 844 136T847 120L840 85Q835 63 813 63H778L770 22Q765 0 743 0H699ZM631 140H708L732 249L631 140Z" />
<glyph unicode="&#xbf;" horiz-adv-x="558" d="M493 332Q502 332 507 326T510 311Q508 303 506 295T502 279Q491 241 467 210T414 154T356 106T306 61T277 13Q268 -15 278 -35T310 -66T359 -77Q406 -77 441 -54T498 20Q505 33 513 38T532 44H617Q627 44 632 37T634
19Q625 -21 600 -58T534 -126T442 -173T328 -191Q260 -191 218 -174T153 -128T127 -67T130 -4Q140 34 161 64T209 120T265 170T316 219T352 272Q354 281 357 289T363 307Q370 319 377 325T396 332H493ZM536 519Q547 519 552 513T555 495L536 408Q534 398 526 391T507
383H410Q400 383 395 390T391 408L409 495Q411 506 420 512T439 519H536Z" />
<glyph unicode="&#xc0;" horiz-adv-x="697" d="M-26 0Q-39 0 -43 10T-42 30L336 675Q342 685 351 692T376 700H492Q507 700 514 693T522 675L626 30Q628 16 622 8T604 0H519Q506 0 500 6T491 23L469 141H172L99 19Q94 12 86 6T66 0H-26ZM231 256H459L411 565L231
256ZM417 750Q404 750 398 753T384 763L283 863Q277 869 279 877Q283 896 302 896H405Q418 896 424 893T438 878L498 779Q502 773 500 766Q497 750 481 750H417Z" />
<glyph unicode="&#xc1;" horiz-adv-x="697" d="M-26 0Q-39 0 -43 10T-42 30L336 675Q342 685 351 692T376 700H492Q507 700 514 693T522 675L626 30Q628 16 622 8T604 0H519Q506 0 500 6T491 23L469 141H172L99 19Q94 12 86 6T66 0H-26ZM231 256H459L411 565L231
256ZM393 750Q379 750 380 764Q381 772 387 778L491 878Q503 889 511 892T532 896H639Q648 896 652 891T655 880Q654 870 646 865L500 763Q490 756 482 753T462 750H393Z" />
<glyph unicode="&#xc2;" horiz-adv-x="697" d="M-26 0Q-39 0 -43 10T-42 30L336 675Q342 685 351 692T376 700H492Q507 700 514 693T522 675L626 30Q628 16 622 8T604 0H519Q506 0 500 6T491 23L469 141H172L99 19Q94 12 86 6T66 0H-26ZM231 256H459L411 565L231
256ZM278 750Q265 750 266 762Q267 770 275 777L397 880Q410 891 418 893T435 896H493Q503 896 509 894T524 880L602 777Q607 771 605 763Q603 750 589 750H551Q544 750 538 751T525 757L453 810L358 757Q351 754 345 752T330 750H278Z" />
<glyph unicode="&#xc3;" horiz-adv-x="697" d="M-26 0Q-39 0 -43 10T-42 30L336 675Q342 685 351 692T376 700H492Q507 700 514 693T522 675L626 30Q628 16 622 8T604 0H519Q506 0 500 6T491 23L469 141H172L99 19Q94 12 86 6T66 0H-26ZM231 256H459L411 565L231
256ZM507 745Q481 745 465 753T435 771T404 780Q389 780 381 773T367 758T350 750H304Q297 750 293 755T290 767Q293 782 301 801T324 837T359 866T406 877Q432 877 448 869T478 851T508 842Q524 842 532 850T545 865T562 873H608Q617 873 620 868T622 855Q619
840 611 821T588 785T553 757T507 745Z" />
<glyph unicode="&#xc4;" horiz-adv-x="697" d="M-26 0Q-39 0 -43 10T-42 30L336 675Q342 685 351 692T376 700H492Q507 700 514 693T522 675L626 30Q628 16 622 8T604 0H519Q506 0 500 6T491 23L469 141H172L99 19Q94 12 86 6T66 0H-26ZM231 256H459L411 565L231
256ZM512 750Q502 750 498 756T495 772L510 845Q512 855 520 861T538 868H611Q621 868 626 862T629 845L613 772Q611 762 603 756T585 750H512ZM294 750Q284 750 280 756T277 772L292 845Q294 855 302 861T320 868H393Q403 868 408 862T411 845L395 772Q393 762
385 756T367 750H294Z" />
<glyph unicode="&#xc5;" horiz-adv-x="697" d="M-26 0Q-39 0 -43 10T-42 30L336 675Q342 685 351 692T376 700H492Q507 700 514 693T522 675L626 30Q628 16 622 8T604 0H519Q506 0 500 6T491 23L469 141H172L99 19Q94 12 86 6T66 0H-26ZM231 256H459L411 565L231
256ZM438 740Q402 740 380 763T366 823Q374 859 404 882T470 906Q506 906 528 883T542 823Q534 786 504 763T438 740ZM446 793Q460 793 470 801T484 823Q487 836 481 844T462 853Q448 853 438 845T424 823Q421 810 427 802T446 793Z" />
<glyph unicode="&#xc6;" horiz-adv-x="973" d="M-20 0Q-35 0 -37 12T-35 33L341 675Q348 687 358 693T380 700H979Q990 700 995 693T999 675L985 609Q982 599 974 592T955 585H638L600 408H895Q906 408 911 402T914 384L901 322Q899 311 891 305T872 298H577L538
115H863Q874 115 879 108T882 90L868 24Q866 14 858 7T839 0H403Q393 0 388 7T384 24L409 141H178L104 19Q100 12 92 6T72 0H-20ZM237 256H433L502 581H424L237 256Z" />
<glyph unicode="&#xc7;" horiz-adv-x="683" d="M233 -220Q206 -219 187 -210T161 -189T164 -169L185 -154Q195 -146 201 -149T216 -159T245 -166Q261 -166 274 -157T290 -132Q293 -118 285 -109T260 -100Q246 -100 235 -103T216 -108T201 -102L187 -84Q183 -77
186 -70T196 -53L226 -6Q153 4 109 38T50 128T47 261Q54 302 64 349T85 439Q107 523 154 584T272 677T436 710Q504 710 554 692T635 643T679 569T682 478Q680 469 673 463T656 457H561Q550 457 545 462T538 481Q536 547 503 571T411 595Q343 595 296 558T226 434Q216
393 208 351T191 266Q176 180 208 143T307 105Q365 105 409 129T483 219Q489 233 496 238T516 243H610Q619 243 624 237T627 222Q616 173 586 131T512 58T409 8T283 -10L253 -53Q260 -50 271 -48T289 -46Q324 -46 340 -70T349 -131Q341 -169 311 -195T233 -220Z"
/>
<glyph unicode="&#xc8;" horiz-adv-x="621" d="M40 0Q29 0 24 7T20 24L159 675Q161 686 169 693T188 700H628Q639 700 644 693T647 675L633 609Q631 599 623 592T604 585H275L237 408H544Q555 408 560 402T563 384L550 322Q548 311 540 305T521 298H214L174 115H512Q523
115 528 108T531 90L517 24Q515 14 507 7T488 0H40ZM390 750Q377 750 371 753T357 763L256 863Q250 869 252 877Q256 896 275 896H378Q391 896 397 893T411 878L471 779Q475 773 473 766Q470 750 454 750H390Z" />
<glyph unicode="&#xc9;" horiz-adv-x="621" d="M40 0Q29 0 24 7T20 24L159 675Q161 686 169 693T188 700H628Q639 700 644 693T647 675L633 609Q631 599 623 592T604 585H275L237 408H544Q555 408 560 402T563 384L550 322Q548 311 540 305T521 298H214L174 115H512Q523
115 528 108T531 90L517 24Q515 14 507 7T488 0H40ZM366 750Q352 750 353 764Q354 772 360 778L464 878Q476 889 484 892T505 896H612Q621 896 625 891T628 880Q627 870 619 865L473 763Q463 756 455 753T435 750H366Z" />
<glyph unicode="&#xca;" horiz-adv-x="621" d="M40 0Q29 0 24 7T20 24L159 675Q161 686 169 693T188 700H628Q639 700 644 693T647 675L633 609Q631 599 623 592T604 585H275L237 408H544Q555 408 560 402T563 384L550 322Q548 311 540 305T521 298H214L174 115H512Q523
115 528 108T531 90L517 24Q515 14 507 7T488 0H40ZM251 750Q238 750 239 762Q240 770 248 777L370 880Q383 891 391 893T408 896H466Q476 896 482 894T497 880L575 777Q580 771 578 763Q576 750 562 750H524Q517 750 511 751T498 757L426 810L331 757Q324 754
318 752T303 750H251Z" />
<glyph unicode="&#xcb;" horiz-adv-x="621" d="M40 0Q29 0 24 7T20 24L159 675Q161 686 169 693T188 700H628Q639 700 644 693T647 675L633 609Q631 599 623 592T604 585H275L237 408H544Q555 408 560 402T563 384L550 322Q548 311 540 305T521 298H214L174 115H512Q523
115 528 108T531 90L517 24Q515 14 507 7T488 0H40ZM484 750Q474 750 470 756T467 772L482 845Q484 855 492 861T510 868H583Q593 868 598 862T601 845L585 772Q583 762 575 756T557 750H484ZM266 750Q256 750 252 756T249 772L264 845Q266 855 274 861T292 868H365Q375
868 380 862T383 845L367 772Q365 762 357 756T339 750H266Z" />
<glyph unicode="&#xcc;" horiz-adv-x="299" d="M39 0Q29 0 24 7T20 24L159 676Q161 686 169 693T188 700H282Q292 700 298 693T302 676L162 24Q160 14 152 7T134 0H39ZM223 750Q210 750 204 753T190 763L89 863Q83 869 85 877Q89 896 108 896H211Q224 896 230
893T244 878L304 779Q308 773 306 766Q303 750 287 750H223Z" />
<glyph unicode="&#xcd;" horiz-adv-x="299" d="M39 0Q29 0 24 7T20 24L159 676Q161 686 169 693T188 700H282Q292 700 298 693T302 676L162 24Q160 14 152 7T134 0H39ZM199 750Q185 750 186 764Q187 772 193 778L297 878Q309 889 317 892T338 896H445Q454 896
458 891T461 880Q460 870 452 865L306 763Q296 756 288 753T268 750H199Z" />
<glyph unicode="&#xce;" horiz-adv-x="299" d="M39 0Q29 0 24 7T20 24L159 676Q161 686 169 693T188 700H282Q292 700 298 693T302 676L162 24Q160 14 152 7T134 0H39ZM84 750Q71 750 72 762Q73 770 81 777L203 880Q216 891 224 893T241 896H299Q309 896 315 894T330
880L408 777Q413 771 411 763Q409 750 395 750H357Q350 750 344 751T331 757L259 810L164 757Q157 754 151 752T136 750H84Z" />
<glyph unicode="&#xcf;" horiz-adv-x="299" d="M39 0Q29 0 24 7T20 24L159 676Q161 686 169 693T188 700H282Q292 700 298 693T302 676L162 24Q160 14 152 7T134 0H39ZM317 750Q307 750 303 756T300 772L315 845Q317 855 325 861T343 868H416Q426 868 431 862T434
845L418 772Q416 762 408 756T390 750H317ZM99 750Q89 750 85 756T82 772L97 845Q99 855 107 861T125 868H198Q208 868 213 862T216 845L200 772Q198 762 190 756T172 750H99Z" />
<glyph unicode="&#xd0;" horiz-adv-x="715" d="M53 0Q42 0 37 7T33 24L93 303H40Q30 303 25 310T21 327L32 377Q34 388 42 395T61 402H114L172 675Q174 686 182 693T201 700H430Q496 700 549 683T637 631T686 545T688 428Q680 384 673 350T655 273Q632 180 592
120T485 30T315 0H53ZM192 115H320Q377 115 415 131T477 182T515 276Q522 306 527 328T536 373T547 425Q562 507 532 546T416 585H292L253 402H365Q375 402 380 395T383 377L373 327Q372 317 363 310T344 303H232L192 115Z" />
<glyph unicode="&#xd1;" horiz-adv-x="708" d="M40 0Q29 0 24 7T20 24L159 675Q161 686 169 693T187 700H263Q277 700 282 694T289 684L483 232L578 675Q580 686 588 693T607 700H691Q702 700 707 693T710 675L572 25Q570 14 562 7T543 0H467Q453 0 448 6T441
16L246 458L154 24Q152 14 144 7T125 0H40ZM507 745Q481 745 465 753T435 771T404 780Q389 780 381 773T367 758T350 750H304Q297 750 293 755T290 767Q293 782 301 801T324 837T359 866T406 877Q432 877 448 869T478 851T508 842Q524 842 532 850T545 865T562
873H608Q617 873 620 868T622 855Q619 840 611 821T588 785T553 757T507 745Z" />
<glyph unicode="&#xd2;" horiz-adv-x="695" d="M294 -10Q233 -10 182 6T97 57T50 142T48 264Q55 307 64 349T84 435Q117 571 202 640T423 710Q485 710 535 693T620 641T667 555T669 435Q662 391 653 349T633 264Q599 125 514 58T294 -10ZM303 105Q369 105 419
143T491 269Q502 313 510 350T525 431Q541 518 512 556T414 595Q347 595 298 557T227 431Q216 388 208 351T192 269Q177 182 205 144T303 105ZM415 750Q402 750 396 753T382 763L281 863Q275 869 277 877Q281 896 300 896H403Q416 896 422 893T436 878L496 779Q500
773 498 766Q495 750 479 750H415Z" />
<glyph unicode="&#xd3;" horiz-adv-x="695" d="M294 -10Q233 -10 182 6T97 57T50 142T48 264Q55 307 64 349T84 435Q117 571 202 640T423 710Q485 710 535 693T620 641T667 555T669 435Q662 391 653 349T633 264Q599 125 514 58T294 -10ZM303 105Q369 105 419
143T491 269Q502 313 510 350T525 431Q541 518 512 556T414 595Q347 595 298 557T227 431Q216 388 208 351T192 269Q177 182 205 144T303 105ZM392 750Q378 750 379 764Q380 772 386 778L490 878Q502 889 510 892T531 896H638Q647 896 651 891T654 880Q653 870
645 865L499 763Q489 756 481 753T461 750H392Z" />
<glyph unicode="&#xd4;" horiz-adv-x="695" d="M294 -10Q233 -10 182 6T97 57T50 142T48 264Q55 307 64 349T84 435Q117 571 202 640T423 710Q485 710 535 693T620 641T667 555T669 435Q662 391 653 349T633 264Q599 125 514 58T294 -10ZM303 105Q369 105 419
143T491 269Q502 313 510 350T525 431Q541 518 512 556T414 595Q347 595 298 557T227 431Q216 388 208 351T192 269Q177 182 205 144T303 105ZM277 750Q264 750 265 762Q266 770 274 777L396 880Q409 891 417 893T434 896H492Q502 896 508 894T523 880L601 777Q606
771 604 763Q602 750 588 750H550Q543 750 537 751T524 757L452 810L357 757Q350 754 344 752T329 750H277Z" />
<glyph unicode="&#xd5;" horiz-adv-x="695" d="M294 -10Q233 -10 182 6T97 57T50 142T48 264Q55 307 64 349T84 435Q117 571 202 640T423 710Q485 710 535 693T620 641T667 555T669 435Q662 391 653 349T633 264Q599 125 514 58T294 -10ZM303 105Q369 105 419
143T491 269Q502 313 510 350T525 431Q541 518 512 556T414 595Q347 595 298 557T227 431Q216 388 208 351T192 269Q177 182 205 144T303 105ZM505 745Q479 745 463 753T433 771T402 780Q387 780 379 773T365 758T348 750H302Q295 750 291 755T288 767Q291 782
299 801T322 837T357 866T404 877Q430 877 446 869T476 851T506 842Q522 842 530 850T543 865T560 873H606Q615 873 618 868T620 855Q617 840 609 821T586 785T551 757T505 745Z" />
<glyph unicode="&#xd6;" horiz-adv-x="695" d="M294 -10Q233 -10 182 6T97 57T50 142T48 264Q55 307 64 349T84 435Q117 571 202 640T423 710Q485 710 535 693T620 641T667 555T669 435Q662 391 653 349T633 264Q599 125 514 58T294 -10ZM303 105Q369 105 419
143T491 269Q502 313 510 350T525 431Q541 518 512 556T414 595Q347 595 298 557T227 431Q216 388 208 351T192 269Q177 182 205 144T303 105ZM510 750Q500 750 496 756T493 772L508 845Q510 855 518 861T536 868H609Q619 868 624 862T627 845L611 772Q609 762
601 756T583 750H510ZM292 750Q282 750 278 756T275 772L290 845Q292 855 300 861T318 868H391Q401 868 406 862T409 845L393 772Q391 762 383 756T365 750H292Z" />
<glyph unicode="&#xd7;" horiz-adv-x="576" d="M77 72L29 134Q24 141 26 150T37 167L205 305L98 444Q93 451 95 460T105 477L165 526Q173 533 183 533T199 526L306 386L477 527Q486 535 495 535T511 527L559 467Q564 460 563 450T552 433L381 293L489 155Q494
148 492 139T482 122L423 74Q414 67 405 67T389 74L280 211L111 72Q102 65 92 65T77 72Z" />
<glyph unicode="&#xd8;" horiz-adv-x="695" d="M294 -10Q233 -10 182 6T97 57T50 142T48 264Q55 307 64 349T84 435Q117 571 202 640T423 710Q485 710 535 693T620 641T667 555T669 435Q662 391 653 349T633 264Q599 125 514 58T294 -10ZM303 105Q369 105 419
143T491 269Q502 313 510 350T525 431Q541 518 512 556T414 595Q347 595 298 557T227 431Q216 388 208 351T192 269Q177 182 205 144T303 105ZM38 191Q27 191 21 201T25 224L642 1006Q644 1010 650 1015T666 1021H695Q706 1021 711 1011T708 989L90 206Q88 202
82 197T65 191H38Z" />
<glyph unicode="&#xd9;" horiz-adv-x="713" d="M303 -10Q239 -10 188 6T105 57T62 143T66 268L152 675Q154 686 162 693T181 700H272Q283 700 288 693T291 675L204 268Q187 186 212 147T312 107Q384 107 431 146T495 268L582 675Q584 686 593 693T612 700H702Q713
700 718 693T721 675L635 268Q604 124 524 57T303 -10ZM420 750Q407 750 401 753T387 763L286 863Q280 869 282 877Q286 896 305 896H408Q421 896 427 893T441 878L501 779Q505 773 503 766Q500 750 484 750H420Z" />
<glyph unicode="&#xda;" horiz-adv-x="713" d="M303 -10Q239 -10 188 6T105 57T62 143T66 268L152 675Q154 686 162 693T181 700H272Q283 700 288 693T291 675L204 268Q187 186 212 147T312 107Q384 107 431 146T495 268L582 675Q584 686 593 693T612 700H702Q713
700 718 693T721 675L635 268Q604 124 524 57T303 -10ZM396 750Q382 750 383 764Q384 772 390 778L494 878Q506 889 514 892T535 896H642Q651 896 655 891T658 880Q657 870 649 865L503 763Q493 756 485 753T465 750H396Z" />
<glyph unicode="&#xdb;" horiz-adv-x="713" d="M303 -10Q239 -10 188 6T105 57T62 143T66 268L152 675Q154 686 162 693T181 700H272Q283 700 288 693T291 675L204 268Q187 186 212 147T312 107Q384 107 431 146T495 268L582 675Q584 686 593 693T612 700H702Q713
700 718 693T721 675L635 268Q604 124 524 57T303 -10ZM281 750Q268 750 269 762Q270 770 278 777L400 880Q413 891 421 893T438 896H496Q506 896 512 894T527 880L605 777Q610 771 608 763Q606 750 592 750H554Q547 750 541 751T528 757L456 810L361 757Q354 754
348 752T333 750H281Z" />
<glyph unicode="&#xdc;" horiz-adv-x="713" d="M303 -10Q239 -10 188 6T105 57T62 143T66 268L152 675Q154 686 162 693T181 700H272Q283 700 288 693T291 675L204 268Q187 186 212 147T312 107Q384 107 431 146T495 268L582 675Q584 686 593 693T612 700H702Q713
700 718 693T721 675L635 268Q604 124 524 57T303 -10ZM515 750Q505 750 501 756T498 772L513 845Q515 855 523 861T541 868H614Q624 868 629 862T632 845L616 772Q614 762 606 756T588 750H515ZM297 750Q287 750 283 756T280 772L295 845Q297 855 305 861T323
868H396Q406 868 411 862T414 845L398 772Q396 762 388 756T370 750H297Z" />
<glyph unicode="&#xdd;" horiz-adv-x="662" d="M223 0Q212 0 207 7T203 24L250 250L103 668Q99 679 106 689T127 700H210Q222 700 228 694T237 681L342 391L571 681Q576 688 584 694T605 700H704Q720 700 721 689T715 668L390 250L341 24Q339 14 331 7T312 0H223ZM357
750Q343 750 344 764Q345 772 351 778L455 878Q467 889 475 892T496 896H603Q612 896 616 891T619 880Q618 870 610 865L464 763Q454 756 446 753T426 750H357Z" />
<glyph unicode="&#xde;" horiz-adv-x="662" d="M40 0Q29 0 24 7T20 24L159 676Q161 686 169 693T188 700H283Q293 700 298 693T302 676L280 575H418Q476 575 522 561T599 519T641 450T640 352Q617 242 543 188T347 133H187L163 24Q161 14 153 7T134 0H40ZM208
244H350Q405 244 445 271T498 353Q505 387 501 411T475 450T404 464H255L208 244Z" />
<glyph unicode="&#xdf;" horiz-adv-x="614" d="M42 0Q32 0 27 7T23 24L121 482Q134 544 169 595T264 678T409 710Q494 710 540 681T600 609T604 517Q596 481 580 454T541 407T497 376Q533 362 551 337T573 279T568 208Q560 172 539 136T482 68T396 19T281 0H223Q210
0 205 7T202 24L213 79Q215 89 224 96T245 103H284Q345 103 384 134T432 212Q443 259 418 290T329 322H290Q277 322 273 329T270 346L281 394Q283 405 289 411T310 418H344Q400 419 434 443T476 512Q486 553 462 580T387 607Q337 607 301 577T251 482L154 24Q152
14 144 7T124 0H42Z" />
<glyph unicode="&#xe0;" horiz-adv-x="606" d="M199 -10Q147 -10 111 7T55 57T28 132T30 228Q34 246 37 260T44 293Q57 343 78 386T131 461T205 512T303 530Q365 530 397 511T448 463L455 496Q457 506 465 513T483 520H562Q572 520 578 513T582 496L481 24Q479
14 471 7T453 0H374Q363 0 358 7T354 24L362 61Q332 30 296 10T199 -10ZM244 97Q286 97 316 116T364 164T391 225Q396 243 400 263T407 302Q413 332 408 359T383 405T321 423Q282 423 255 405T209 356T180 290Q176 275 173 260T168 230Q163 194 165 164T186 116T244
97ZM340 595Q327 595 321 598T307 608L206 708Q200 714 202 722Q206 741 224 741H329Q342 741 348 738T362 723L422 625Q426 618 424 610Q421 595 405 595H340Z" />
<glyph unicode="&#xe1;" horiz-adv-x="606" d="M199 -10Q147 -10 111 7T55 57T28 132T30 228Q34 246 37 260T44 293Q57 343 78 386T131 461T205 512T303 530Q365 530 397 511T448 463L455 496Q457 506 465 513T483 520H562Q572 520 578 513T582 496L481 24Q479
14 471 7T453 0H374Q363 0 358 7T354 24L362 61Q332 30 296 10T199 -10ZM244 97Q286 97 316 116T364 164T391 225Q396 243 400 263T407 302Q413 332 408 359T383 405T321 423Q282 423 255 405T209 356T180 290Q176 275 173 260T168 230Q163 194 165 164T186 116T244
97ZM309 595Q293 595 297 611Q299 618 305 624L408 723Q420 734 427 737T449 741H549Q565 741 564 724Q563 715 556 710L410 608Q400 601 392 598T372 595H309Z" />
<glyph unicode="&#xe2;" horiz-adv-x="606" d="M199 -10Q147 -10 111 7T55 57T28 132T30 228Q34 246 37 260T44 293Q57 343 78 386T131 461T205 512T303 530Q365 530 397 511T448 463L455 496Q457 506 465 513T483 520H562Q572 520 578 513T582 496L481 24Q479
14 471 7T453 0H374Q363 0 358 7T354 24L362 61Q332 30 296 10T199 -10ZM244 97Q286 97 316 116T364 164T391 225Q396 243 400 263T407 302Q413 332 408 359T383 405T321 423Q282 423 255 405T209 356T180 290Q176 275 173 260T168 230Q163 194 165 164T186 116T244
97ZM200 595Q187 595 188 607Q189 615 197 622L319 725Q332 736 340 738T357 741H411Q421 741 427 739T442 725L520 622Q525 616 523 608Q521 595 507 595H471Q464 595 458 596T445 602L373 655L278 602Q271 598 265 597T250 595H200Z" />
<glyph unicode="&#xe3;" horiz-adv-x="606" d="M199 -10Q147 -10 111 7T55 57T28 132T30 228Q34 246 37 260T44 293Q57 343 78 386T131 461T205 512T303 530Q365 530 397 511T448 463L455 496Q457 506 465 513T483 520H562Q572 520 578 513T582 496L481 24Q479
14 471 7T453 0H374Q363 0 358 7T354 24L362 61Q332 30 296 10T199 -10ZM244 97Q286 97 316 116T364 164T391 225Q396 243 400 263T407 302Q413 332 408 359T383 405T321 423Q282 423 255 405T209 356T180 290Q176 275 173 260T168 230Q163 194 165 164T186 116T244
97ZM423 590Q397 590 382 598T354 616T324 625Q312 625 304 618T289 603T271 595H225Q218 595 214 600T211 612Q214 627 222 645T245 681T279 708T325 719Q352 719 367 711T395 693T425 684Q438 684 445 692T459 707T477 715H523Q531 715 534 710T537 697Q534 682
526 664T503 628T468 601T423 590Z" />
<glyph unicode="&#xe4;" horiz-adv-x="606" d="M199 -10Q147 -10 111 7T55 57T28 132T30 228Q34 246 37 260T44 293Q57 343 78 386T131 461T205 512T303 530Q365 530 397 511T448 463L455 496Q457 506 465 513T483 520H562Q572 520 578 513T582 496L481 24Q479
14 471 7T453 0H374Q363 0 358 7T354 24L362 61Q332 30 296 10T199 -10ZM244 97Q286 97 316 116T364 164T391 225Q396 243 400 263T407 302Q413 332 408 359T383 405T321 423Q282 423 255 405T209 356T180 290Q176 275 173 260T168 230Q163 194 165 164T186 116T244
97ZM419 614Q409 614 405 620T401 636L417 709Q419 719 426 725T444 732H517Q527 732 532 726T535 709L519 636Q517 626 510 620T492 614H419ZM231 614Q221 614 217 620T213 636L229 709Q231 719 238 725T256 732H329Q339 732 344 726T347 709L331 636Q329 626
322 620T304 614H231Z" />
<glyph unicode="&#xe5;" horiz-adv-x="606" d="M199 -10Q147 -10 111 7T55 57T28 132T30 228Q34 246 37 260T44 293Q57 343 78 386T131 461T205 512T303 530Q365 530 397 511T448 463L455 496Q457 506 465 513T483 520H562Q572 520 578 513T582 496L481 24Q479
14 471 7T453 0H374Q363 0 358 7T354 24L362 61Q332 30 296 10T199 -10ZM244 97Q286 97 316 116T364 164T391 225Q396 243 400 263T407 302Q413 332 408 359T383 405T321 423Q282 423 255 405T209 356T180 290Q176 275 173 260T168 230Q163 194 165 164T186 116T244
97ZM356 590Q320 590 298 613T284 673Q292 709 322 732T388 756Q424 756 446 733T460 673Q452 636 422 613T356 590ZM364 643Q378 643 388 651T402 673Q405 686 399 694T380 703Q366 703 356 695T342 673Q339 660 345 652T364 643Z" />
<glyph unicode="&#xe6;" horiz-adv-x="903" d="M175 -10Q116 -10 77 10T21 65T14 143Q29 213 95 255T257 311L398 331L402 352Q410 394 394 416T328 439Q299 439 278 430T241 408T213 385Q209 378 205 376T195 373H119Q110 373 105 379T101 395Q105 411 122 434T169
478T245 515T348 530Q416 530 452 511T503 463Q537 493 582 511T683 530Q740 530 778 514T838 471T869 410T878 339T870 266L866 245Q864 235 855 228T836 221H509L508 213Q499 167 508 138T539 96T586 83Q613 83 640 94T691 129Q702 140 708 143T725 146H809Q819
146 823 140T826 125Q823 111 804 88T752 43T673 6T567 -10Q499 -10 458 14T395 80Q350 32 293 11T175 -10ZM221 85Q256 85 288 100T343 146T376 226L381 247L276 231Q216 222 183 202T144 153Q139 131 149 116T178 93T221 85ZM527 305H743V309Q750 348 745 377T720
423T663 439Q636 439 608 425T559 383T528 309L527 305Z" />
<glyph unicode="&#xe7;" horiz-adv-x="570" d="M195 -220Q168 -220 146 -211T114 -190T116 -169L136 -154Q145 -147 151 -150T166 -160T197 -166Q213 -166 225 -157T241 -132Q244 -118 236 -109T210 -100Q197 -100 186 -103T167 -108T152 -102L137 -81Q132 -75
135 -67T146 -49L174 -4Q123 6 86 35T34 111T29 220Q32 235 37 259T46 300Q73 409 146 469T332 530Q395 530 437 512T504 466T538 408T545 354Q544 343 537 337T519 330H428Q418 330 413 335T406 350Q406 390 385 408T323 426Q274 426 236 395T180 295Q176 277
172 258T165 225Q154 156 175 125T245 94Q284 94 315 110T367 167Q373 178 379 182T396 187H486Q496 187 501 181T504 163Q497 141 479 112T428 55T348 9T234 -10L204 -52Q211 -49 221 -48T240 -46Q273 -46 290 -71T299 -135Q291 -173 266 -196T195 -220Z" />
<glyph unicode="&#xe8;" horiz-adv-x="575" d="M239 -10Q166 -10 118 19T51 103T45 236Q47 246 50 261T56 286Q76 362 118 416T220 500T354 530Q435 530 482 497T544 404T545 266L540 245Q538 235 530 228T510 221H178Q178 221 178 218T176 213Q171 178 177 149T203
101T258 83Q286 83 307 91T341 111T362 129Q374 141 380 143T397 146H484Q493 146 498 140T501 125Q496 109 476 86T422 41T342 5T239 -10ZM196 305H417L418 308Q428 347 421 376T392 422T335 439Q300 439 272 423T225 377T197 308L196 305ZM346 595Q333 595 327
598T313 608L212 708Q206 714 208 722Q212 741 230 741H335Q348 741 354 738T368 723L428 625Q432 618 430 610Q427 595 411 595H346Z" />
<glyph unicode="&#xe9;" horiz-adv-x="575" d="M239 -10Q166 -10 118 19T51 103T45 236Q47 246 50 261T56 286Q76 362 118 416T220 500T354 530Q435 530 482 497T544 404T545 266L540 245Q538 235 530 228T510 221H178Q178 221 178 218T176 213Q171 178 177 149T203
101T258 83Q286 83 307 91T341 111T362 129Q374 141 380 143T397 146H484Q493 146 498 140T501 125Q496 109 476 86T422 41T342 5T239 -10ZM196 305H417L418 308Q428 347 421 376T392 422T335 439Q300 439 272 423T225 377T197 308L196 305ZM315 595Q299 595 303
611Q305 618 311 624L414 723Q426 734 433 737T455 741H555Q571 741 570 724Q569 715 562 710L416 608Q406 601 398 598T378 595H315Z" />
<glyph unicode="&#xea;" horiz-adv-x="575" d="M239 -10Q166 -10 118 19T51 103T45 236Q47 246 50 261T56 286Q76 362 118 416T220 500T354 530Q435 530 482 497T544 404T545 266L540 245Q538 235 530 228T510 221H178Q178 221 178 218T176 213Q171 178 177 149T203
101T258 83Q286 83 307 91T341 111T362 129Q374 141 380 143T397 146H484Q493 146 498 140T501 125Q496 109 476 86T422 41T342 5T239 -10ZM196 305H417L418 308Q428 347 421 376T392 422T335 439Q300 439 272 423T225 377T197 308L196 305ZM207 595Q194 595 195
607Q196 615 204 622L326 725Q339 736 347 738T364 741H418Q428 741 434 739T449 725L527 622Q532 616 530 608Q528 595 514 595H478Q471 595 465 596T452 602L380 655L285 602Q278 598 272 597T257 595H207Z" />
<glyph unicode="&#xeb;" horiz-adv-x="575" d="M239 -10Q166 -10 118 19T51 103T45 236Q47 246 50 261T56 286Q76 362 118 416T220 500T354 530Q435 530 482 497T544 404T545 266L540 245Q538 235 530 228T510 221H178Q178 221 178 218T176 213Q171 178 177 149T203
101T258 83Q286 83 307 91T341 111T362 129Q374 141 380 143T397 146H484Q493 146 498 140T501 125Q496 109 476 86T422 41T342 5T239 -10ZM196 305H417L418 308Q428 347 421 376T392 422T335 439Q300 439 272 423T225 377T197 308L196 305ZM425 614Q415 614 411
620T407 636L423 709Q425 719 432 725T450 732H523Q533 732 538 726T541 709L525 636Q523 626 516 620T498 614H425ZM237 614Q227 614 223 620T219 636L235 709Q237 719 244 725T262 732H335Q345 732 350 726T353 709L337 636Q335 626 328 620T310 614H237Z" />
<glyph unicode="&#xec;" horiz-adv-x="264" d="M28 0Q18 0 13 7T9 24L109 496Q111 506 119 513T138 520H221Q232 520 237 513T240 496L140 24Q138 14 130 7T111 0H28ZM178 595Q165 595 159 598T145 608L44 708Q38 714 40 722Q44 741 62 741H167Q180 741 186 738T200
723L260 625Q264 618 262 610Q259 595 243 595H178Z" />
<glyph unicode="&#xed;" horiz-adv-x="264" d="M28 0Q18 0 13 7T9 24L109 496Q111 506 119 513T138 520H221Q232 520 237 513T240 496L140 24Q138 14 130 7T111 0H28ZM148 595Q132 595 136 611Q138 618 144 624L247 723Q259 734 266 737T288 741H388Q404 741 403
724Q402 715 395 710L249 608Q239 601 231 598T211 595H148Z" />
<glyph unicode="&#xee;" horiz-adv-x="264" d="M28 0Q18 0 13 7T9 24L109 496Q111 506 119 513T138 520H221Q232 520 237 513T240 496L140 24Q138 14 130 7T111 0H28ZM295 595Q282 595 283 607Q284 615 292 622L414 725Q427 736 435 738T452 741H506Q516 741 522
739T537 725L615 622Q620 616 618 608Q616 595 602 595H566Q559 595 553 596T540 602L468 655L373 602Q366 598 360 597T345 595H295Z" />
<glyph unicode="&#xef;" horiz-adv-x="264" d="M28 0Q18 0 13 7T9 24L109 496Q111 506 119 513T138 520H221Q232 520 237 513T240 496L140 24Q138 14 130 7T111 0H28ZM257 614Q247 614 243 620T239 636L255 709Q257 719 264 725T282 732H355Q365 732 370 726T373
709L357 636Q355 626 348 620T330 614H257ZM69 614Q59 614 55 620T51 636L67 709Q69 719 76 725T94 732H167Q177 732 182 726T185 709L169 636Q167 626 160 620T142 614H69Z" />
<glyph unicode="&#xf0;" horiz-adv-x="586" d="M239 -10Q161 -10 112 19T45 103T43 231Q58 304 100 358T204 441T341 470Q367 470 386 464T421 447Q417 474 410 497T390 541L277 501Q268 498 263 498Q255 498 251 503T248 517L253 539Q255 552 261 558T281 568L353
594Q340 610 324 626T290 658Q283 665 281 670T280 679Q282 688 289 694T305 700H393Q408 700 417 697T433 687Q445 675 456 663T477 638L576 673Q585 676 590 676Q598 676 602 671T605 657L600 635Q598 623 592 617T572 606L514 586Q547 529 556 451T544 255Q542
248 541 241T538 227Q521 155 481 102T379 19T239 -10ZM260 89Q298 89 326 106T373 152T400 218Q402 225 403 230T406 242Q413 278 407 307T381 353T321 371Q282 371 254 354T208 307T181 242Q179 234 178 229T176 217Q169 181 175 152T202 106T260 89Z" />
<glyph unicode="&#xf1;" horiz-adv-x="624" d="M28 0Q18 0 13 7T9 24L109 496Q111 506 119 513T138 520H220Q230 520 235 513T238 496L229 455Q261 487 304 508T403 530Q471 530 512 503T566 425T565 305L505 24Q503 14 495 7T476 0H388Q378 0 373 7T369 24L427
299Q440 360 425 391T351 423Q294 423 255 390T202 299L144 24Q142 14 134 7T116 0H28ZM439 590Q413 590 398 598T370 616T340 625Q328 625 320 618T305 603T287 595H241Q234 595 230 600T227 612Q230 627 238 645T261 681T295 708T341 719Q368 719 383 711T411
693T441 684Q454 684 461 692T475 707T493 715H539Q547 715 550 710T553 697Q550 682 542 664T519 628T484 601T439 590Z" />
<glyph unicode="&#xf2;" horiz-adv-x="591" d="M237 -10Q161 -10 111 18T39 97T28 216Q31 234 36 260T47 304Q65 373 102 423T198 502T337 530Q413 530 463 502T536 424T547 304Q543 286 538 260T528 216Q510 148 474 97T379 18T237 -10ZM247 89Q301 89 338 122T393
221Q397 236 402 260T410 299Q421 364 401 397T327 431Q274 431 236 398T182 299Q178 284 173 260T165 221Q154 156 173 123T247 89ZM339 595Q326 595 320 598T306 608L205 708Q199 714 201 722Q205 741 223 741H328Q341 741 347 738T361 723L421 625Q425 618 423
610Q420 595 404 595H339Z" />
<glyph unicode="&#xf3;" horiz-adv-x="591" d="M237 -10Q161 -10 111 18T39 97T28 216Q31 234 36 260T47 304Q65 373 102 423T198 502T337 530Q413 530 463 502T536 424T547 304Q543 286 538 260T528 216Q510 148 474 97T379 18T237 -10ZM247 89Q301 89 338 122T393
221Q397 236 402 260T410 299Q421 364 401 397T327 431Q274 431 236 398T182 299Q178 284 173 260T165 221Q154 156 173 123T247 89ZM308 595Q292 595 296 611Q298 618 304 624L407 723Q419 734 426 737T448 741H548Q564 741 563 724Q562 715 555 710L409 608Q399
601 391 598T371 595H308Z" />
<glyph unicode="&#xf4;" horiz-adv-x="591" d="M237 -10Q161 -10 111 18T39 97T28 216Q31 234 36 260T47 304Q65 373 102 423T198 502T337 530Q413 530 463 502T536 424T547 304Q543 286 538 260T528 216Q510 148 474 97T379 18T237 -10ZM247 89Q301 89 338 122T393
221Q397 236 402 260T410 299Q421 364 401 397T327 431Q274 431 236 398T182 299Q178 284 173 260T165 221Q154 156 173 123T247 89ZM200 595Q187 595 188 607Q189 615 197 622L319 725Q332 736 340 738T357 741H411Q421 741 427 739T442 725L520 622Q525 616 523
608Q521 595 507 595H471Q464 595 458 596T445 602L373 655L278 602Q271 598 265 597T250 595H200Z" />
<glyph unicode="&#xf5;" horiz-adv-x="591" d="M237 -10Q161 -10 111 18T39 97T28 216Q31 234 36 260T47 304Q65 373 102 423T198 502T337 530Q413 530 463 502T536 424T547 304Q543 286 538 260T528 216Q510 148 474 97T379 18T237 -10ZM247 89Q301 89 338 122T393
221Q397 236 402 260T410 299Q421 364 401 397T327 431Q274 431 236 398T182 299Q178 284 173 260T165 221Q154 156 173 123T247 89ZM422 590Q396 590 381 598T353 616T323 625Q311 625 303 618T288 603T270 595H224Q217 595 213 600T210 612Q213 627 221 645T244
681T278 708T324 719Q351 719 366 711T394 693T424 684Q437 684 444 692T458 707T476 715H522Q530 715 533 710T536 697Q533 682 525 664T502 628T467 601T422 590Z" />
<glyph unicode="&#xf6;" horiz-adv-x="591" d="M237 -10Q161 -10 111 18T39 97T28 216Q31 234 36 260T47 304Q65 373 102 423T198 502T337 530Q413 530 463 502T536 424T547 304Q543 286 538 260T528 216Q510 148 474 97T379 18T237 -10ZM247 89Q301 89 338 122T393
221Q397 236 402 260T410 299Q421 364 401 397T327 431Q274 431 236 398T182 299Q178 284 173 260T165 221Q154 156 173 123T247 89ZM418 614Q408 614 404 620T400 636L416 709Q418 719 425 725T443 732H516Q526 732 531 726T534 709L518 636Q516 626 509 620T491
614H418ZM230 614Q220 614 216 620T212 636L228 709Q230 719 237 725T255 732H328Q338 732 343 726T346 709L330 636Q328 626 321 620T303 614H230Z" />
<glyph unicode="&#xf7;" horiz-adv-x="542" d="M180 57Q170 57 165 64T161 81L177 156Q179 167 187 174T206 181H285Q295 181 300 174T304 156L288 81Q286 71 278 64T259 57H180ZM257 421Q247 421 242 428T239 445L254 520Q256 530 264 537T284 545H363Q373 545
378 538T382 520L366 445Q364 435 355 428T336 421H257ZM67 249Q56 249 51 255T48 273L60 328Q62 339 70 345T89 352H476Q487 352 492 346T495 328L483 273Q481 262 473 256T454 249H67Z" />
<glyph unicode="&#xf8;" horiz-adv-x="591" d="M237 -10Q161 -10 111 18T39 97T28 216Q31 234 36 260T47 304Q65 373 102 423T198 502T337 530Q413 530 463 502T536 424T547 304Q543 286 538 260T528 216Q510 148 474 97T379 18T237 -10ZM247 89Q301 89 338 122T393
221Q397 236 402 260T410 299Q421 364 401 397T327 431Q274 431 236 398T182 299Q178 284 173 260T165 221Q154 156 173 123T247 89ZM11 -28Q5 -28 -1 -23T-7 -11Q-7 -3 2 5L521 532Q528 538 534 542T552 547H577Q584 547 589 542T594 530Q594 522 587 514L67 -13Q61
-19 54 -23T36 -28H11Z" />
<glyph unicode="&#xf9;" horiz-adv-x="621" d="M204 -10Q139 -10 98 17T44 95T44 215L104 496Q106 506 114 513T133 520H221Q231 520 236 513T239 496L181 221Q172 180 175 153T198 111T257 97Q311 97 351 130T403 221L462 496Q464 506 472 513T491 520H578Q589
520 594 513T597 496L497 24Q495 14 487 7T468 0H387Q377 0 372 7T368 24L376 65Q354 42 331 25T278 -1T204 -10ZM345 595Q332 595 326 598T312 608L211 708Q205 714 207 722Q211 741 229 741H334Q347 741 353 738T367 723L427 625Q431 618 429 610Q426 595 410
595H345Z" />
<glyph unicode="&#xfa;" horiz-adv-x="621" d="M204 -10Q139 -10 98 17T44 95T44 215L104 496Q106 506 114 513T133 520H221Q231 520 236 513T239 496L181 221Q172 180 175 153T198 111T257 97Q311 97 351 130T403 221L462 496Q464 506 472 513T491 520H578Q589
520 594 513T597 496L497 24Q495 14 487 7T468 0H387Q377 0 372 7T368 24L376 65Q354 42 331 25T278 -1T204 -10ZM314 595Q298 595 302 611Q304 618 310 624L413 723Q425 734 432 737T454 741H554Q570 741 569 724Q568 715 561 710L415 608Q405 601 397 598T377
595H314Z" />
<glyph unicode="&#xfb;" horiz-adv-x="621" d="M204 -10Q139 -10 98 17T44 95T44 215L104 496Q106 506 114 513T133 520H221Q231 520 236 513T239 496L181 221Q172 180 175 153T198 111T257 97Q311 97 351 130T403 221L462 496Q464 506 472 513T491 520H578Q589
520 594 513T597 496L497 24Q495 14 487 7T468 0H387Q377 0 372 7T368 24L376 65Q354 42 331 25T278 -1T204 -10ZM205 595Q192 595 193 607Q194 615 202 622L324 725Q337 736 345 738T362 741H416Q426 741 432 739T447 725L525 622Q530 616 528 608Q526 595 512
595H476Q469 595 463 596T450 602L378 655L283 602Q276 598 270 597T255 595H205Z" />
<glyph unicode="&#xfc;" horiz-adv-x="621" d="M204 -10Q139 -10 98 17T44 95T44 215L104 496Q106 506 114 513T133 520H221Q231 520 236 513T239 496L181 221Q172 180 175 153T198 111T257 97Q311 97 351 130T403 221L462 496Q464 506 472 513T491 520H578Q589
520 594 513T597 496L497 24Q495 14 487 7T468 0H387Q377 0 372 7T368 24L376 65Q354 42 331 25T278 -1T204 -10ZM424 614Q414 614 410 620T406 636L422 709Q424 719 431 725T449 732H522Q532 732 537 726T540 709L524 636Q522 626 515 620T497 614H424ZM236 614Q226
614 222 620T218 636L234 709Q236 719 243 725T261 732H334Q344 732 349 726T352 709L336 636Q334 626 327 620T309 614H236Z" />
<glyph unicode="&#xfd;" horiz-adv-x="580" d="M56 -190Q44 -190 40 -180T44 -158L166 34L69 492Q67 503 73 511T94 520H169Q181 520 186 515T192 501L259 173L467 501Q472 509 479 514T499 520H585Q595 520 600 512T599 490L172 -171Q167 -179 160 -184T140 -190H56ZM304
595Q288 595 292 611Q294 618 300 624L403 723Q415 734 422 737T444 741H544Q560 741 559 724Q558 715 551 710L405 608Q395 601 387 598T367 595H304Z" />
<glyph unicode="&#xfe;" horiz-adv-x="612" d="M-12 -190Q-22 -190 -27 -183T-31 -166L151 686Q153 696 161 703T179 710H264Q275 710 280 704T284 686L235 460Q261 488 297 509T395 530Q447 530 483 513T541 463T568 388T566 292Q564 275 561 260T552 227Q540
178 518 135T465 59T391 8T295 -10Q239 -10 203 10T151 61L102 -166Q100 -176 92 -183T73 -190H-12ZM273 97Q313 97 341 115T387 164T417 230Q422 245 425 260T430 290Q435 326 431 356T409 404T350 423Q308 423 278 404T228 356T200 295Q195 277 191 257T184 218Q179
188 184 161T211 115T273 97Z" />
<glyph unicode="&#xff;" horiz-adv-x="580" d="M56 -190Q44 -190 40 -180T44 -158L166 34L69 492Q67 503 73 511T94 520H169Q181 520 186 515T192 501L259 173L467 501Q472 509 479 514T499 520H585Q595 520 600 512T599 490L172 -171Q167 -179 160 -184T140 -190H56ZM413
614Q403 614 399 620T395 636L411 709Q413 719 420 725T438 732H511Q521 732 526 726T529 709L513 636Q511 626 504 620T486 614H413ZM225 614Q215 614 211 620T207 636L223 709Q225 719 232 725T250 732H323Q333 732 338 726T341 709L325 636Q323 626 316 620T298
614H225Z" />
<glyph unicode="&#x2013;" horiz-adv-x="570" d="M74 243Q64 243 59 250T56 267L70 333Q72 343 80 350T98 357H496Q506 357 511 350T515 333L501 267Q499 257 491 250T471 243H74Z" />
<glyph unicode="&#x2014;" horiz-adv-x="760" d="M74 243Q64 243 59 250T56 267L70 333Q72 343 80 350T98 357H686Q696 357 701 350T705 333L691 267Q689 257 681 250T661 243H74Z" />
<glyph unicode="&#x2018;" horiz-adv-x="259" d="M233 519Q229 507 220 497T195 487H99Q86 487 85 496T88 514L190 685Q196 695 205 702T228 710H283Q291 710 295 704T296 688L233 519Z" />
<glyph unicode="&#x2019;" horiz-adv-x="253" d="M155 678Q160 691 169 700T194 710H290Q303 710 304 701T301 683L199 513Q193 503 185 495T161 487H106Q98 487 94 493T93 509L155 678Z" />
<glyph unicode="&#x201a;" horiz-adv-x="269" d="M34 116Q39 129 48 138T73 148H168Q182 148 183 139T180 121L77 -50Q71 -60 63 -67T40 -75H-16Q-24 -75 -28 -69T-28 -53L34 116Z" />
<glyph unicode="&#x201c;" horiz-adv-x="454" d="M294 487Q281 487 280 496T283 514L385 685Q391 695 399 702T423 710H478Q486 710 490 704T491 688L428 519Q424 507 415 497T390 487H294ZM99 487Q86 487 85 496T88 514L190 685Q196 695 205 702T228 710H283Q291
710 295 704T296 688L233 519Q229 507 220 497T195 487H99Z" />
<glyph unicode="&#x201d;" horiz-adv-x="447" d="M155 678Q160 691 169 700T194 710H290Q303 710 304 701T301 683L199 513Q193 503 185 495T161 487H106Q98 487 94 493T93 509L155 678ZM349 678Q354 691 363 700T388 710H484Q497 710 498 701T495 683L393 513Q387
503 379 495T355 487H300Q292 487 288 493T287 509L349 678Z" />
<glyph unicode="&#x201e;" horiz-adv-x="463" d="M34 116Q39 129 48 138T73 148H168Q182 148 183 139T180 121L77 -50Q71 -60 63 -67T40 -75H-16Q-24 -75 -28 -69T-28 -53L34 116ZM228 116Q233 129 242 138T267 148H362Q376 148 377 139T374 121L271 -50Q265 -60
257 -67T234 -75H179Q171 -75 167 -69T166 -53L228 116Z" />
<glyph unicode="&#x2022;" horiz-adv-x="380" d="M79 320Q86 353 107 379T159 421T220 437Q253 437 275 421T308 379T311 320Q305 289 284 262T233 220T170 204Q139 204 116 219T82 262T79 320Z" />
<glyph unicode="&#x2039;" horiz-adv-x="349" d="M239 76Q235 76 231 78T221 85L63 279Q57 287 55 294T53 311L61 347Q63 356 68 363T84 379L325 573Q331 578 337 580T347 582Q356 582 360 576T363 561L349 494Q346 480 341 472T323 454L167 329L269 204Q277 194
279 186T279 164L265 97Q263 88 256 82T239 76Z" />
<glyph unicode="&#x203a;" horiz-adv-x="349" d="M45 76Q36 76 31 82T28 97L43 164Q46 178 52 186T69 204L224 329L122 454Q115 464 112 472T113 494L127 561Q129 570 136 576T152 582Q156 582 161 580T170 573L329 379Q335 371 337 364T338 347L330 311Q328 302
323 295T307 279L66 85Q60 80 55 78T45 76Z" />
</font>
</defs>
</svg>
